  0
SECTION
  2
HEADER
  9
$ACADVER
  1
AC1015
  9
$ACADMAINTVER
 70
    13
  9
$DWGCODEPAGE
  3
ANSI_932
  9
$INSBASE
 10
166.052088446891
 20
-804.6284498431107
 30
0.0
  9
$EXTMIN
 10
167.6469274150449
 20
-848.7275985051045
 30
0.0
  9
$EXTMAX
 10
451.8641120842247
 20
-594.1342078095202
 30
0.0
  9
$LIMMIN
 10
190.0776992394791
 20
200.0
  9
$LIMMAX
 10
420.0
 20
297.0
  9
$ORTHOMODE
 70
     1
  9
$REGENMODE
 70
     1
  9
$FILLMODE
 70
     1
  9
$QTEXTMODE
 70
     0
  9
$MIRRTEXT
 70
     1
  9
$LTSCALE
 40
1.0
  9
$ATTMODE
 70
     1
  9
$TEXTSIZE
 40
2.0
  9
$TRACEWID
 40
1.0
  9
$TEXTSTYLE
  7
STANDARD
  9
$CLAYER
  8
Object
  9
$CELTYPE
  6
BYLAYER
  9
$CECOLOR
 62
   256
  9
$CELTSCALE
 40
0.5
  9
$DISPSILH
 70
     0
  9
$DIMSCALE
 40
1.0
  9
$DIMASZ
 40
2.5
  9
$DIMEXO
 40
0.625
  9
$DIMDLI
 40
3.75
  9
$DIMRND
 40
0.0
  9
$DIMDLE
 40
0.0
  9
$DIMEXE
 40
1.25
  9
$DIMTP
 40
0.0
  9
$DIMTM
 40
0.0
  9
$DIMTXT
 40
2.5
  9
$DIMCEN
 40
2.5
  9
$DIMTSZ
 40
0.0
  9
$DIMTOL
 70
     0
  9
$DIMLIM
 70
     0
  9
$DIMTIH
 70
     0
  9
$DIMTOH
 70
     0
  9
$DIMSE1
 70
     0
  9
$DIMSE2
 70
     0
  9
$DIMTAD
 70
     1
  9
$DIMZIN
 70
     8
  9
$DIMBLK
  1

  9
$DIMASO
 70
     1
  9
$DIMSHO
 70
     1
  9
$DIMPOST
  1

  9
$DIMAPOST
  1

  9
$DIMALT
 70
     0
  9
$DIMALTD
 70
     4
  9
$DIMALTF
 40
0.0394
  9
$DIMLFAC
 40
1.0
  9
$DIMTOFL
 70
     1
  9
$DIMTVP
 40
0.0
  9
$DIMTIX
 70
     0
  9
$DIMSOXD
 70
     0
  9
$DIMSAH
 70
     0
  9
$DIMBLK1
  1

  9
$DIMBLK2
  1

  9
$DIMSTYLE
  2
STANDARD
  9
$DIMCLRD
 70
     0
  9
$DIMCLRE
 70
     0
  9
$DIMCLRT
 70
     0
  9
$DIMTFAC
 40
1.0
  9
$DIMGAP
 40
0.625
  9
$DIMJUST
 70
     0
  9
$DIMSD1
 70
     0
  9
$DIMSD2
 70
     0
  9
$DIMTOLJ
 70
     1
  9
$DIMTZIN
 70
     0
  9
$DIMALTZ
 70
     0
  9
$DIMALTTZ
 70
     0
  9
$DIMUPT
 70
     0
  9
$DIMDEC
 70
     4
  9
$DIMTDEC
 70
     4
  9
$DIMALTU
 70
     8
  9
$DIMALTTD
 70
     4
  9
$DIMTXSTY
  7
STANDARD
  9
$DIMAUNIT
 70
     0
  9
$DIMADEC
 70
     0
  9
$DIMALTRND
 40
0.0
  9
$DIMAZIN
 70
     0
  9
$DIMDSEP
 70
    46
  9
$DIMATFIT
 70
     3
  9
$DIMFRAC
 70
     0
  9
$DIMLDRBLK
  1

  9
$DIMLUNIT
 70
     6
  9
$DIMLWD
 70
    -2
  9
$DIMLWE
 70
    -2
  9
$DIMTMOVE
 70
     0
  9
$LUNITS
 70
     2
  9
$LUPREC
 70
     4
  9
$SKETCHINC
 40
1.0
  9
$FILLETRAD
 40
3.0
  9
$AUNITS
 70
     0
  9
$AUPREC
 70
     0
  9
$MENU
  1
acad
  9
$ELEVATION
 40
0.0
  9
$PELEVATION
 40
0.0
  9
$THICKNESS
 40
0.0
  9
$LIMCHECK
 70
     0
  9
$CHAMFERA
 40
0.0
  9
$CHAMFERB
 40
0.0
  9
$CHAMFERC
 40
20.0
  9
$CHAMFERD
 40
0.0
  9
$SKPOLY
 70
     0
  9
$TDCREATE
 40
2451019.405949073
  9
$TDUCREATE
 40
2451019.030949074
  9
$TDUPDATE
 40
2453560.500774201
  9
$TDUUPDATE
 40
2453560.125774201
  9
$TDINDWG
 40
12.9525258912
  9
$TDUSRTIMER
 40
12.9525257755
  9
$USRTIMER
 70
     1
  9
$ANGBASE
 50
0.0
  9
$ANGDIR
 70
     0
  9
$PDMODE
 70
     0
  9
$PDSIZE
 40
0.0
  9
$PLINEWID
 40
0.25
  9
$SPLFRAME
 70
     0
  9
$SPLINETYPE
 70
     6
  9
$SPLINESEGS
 70
    10
  9
$HANDSEED
  5
76B
  9
$SURFTAB1
 70
     6
  9
$SURFTAB2
 70
     6
  9
$SURFTYPE
 70
     6
  9
$SURFU
 70
     6
  9
$SURFV
 70
     6
  9
$UCSBASE
  2

  9
$UCSNAME
  2

  9
$UCSORG
 10
0.0
 20
0.0
 30
0.0
  9
$UCSXDIR
 10
1.0
 20
0.0
 30
0.0
  9
$UCSYDIR
 10
0.0
 20
1.0
 30
0.0
  9
$UCSORTHOREF
  2

  9
$UCSORTHOVIEW
 70
     0
  9
$UCSORGTOP
 10
0.0
 20
0.0
 30
0.0
  9
$UCSORGBOTTOM
 10
0.0
 20
0.0
 30
0.0
  9
$UCSORGLEFT
 10
0.0
 20
0.0
 30
0.0
  9
$UCSORGRIGHT
 10
0.0
 20
0.0
 30
0.0
  9
$UCSORGFRONT
 10
0.0
 20
0.0
 30
0.0
  9
$UCSORGBACK
 10
0.0
 20
0.0
 30
0.0
  9
$PUCSBASE
  2

  9
$PUCSNAME
  2

  9
$PUCSORG
 10
0.0
 20
0.0
 30
0.0
  9
$PUCSXDIR
 10
1.0
 20
0.0
 30
0.0
  9
$PUCSYDIR
 10
0.0
 20
1.0
 30
0.0
  9
$PUCSORTHOREF
  2

  9
$PUCSORTHOVIEW
 70
     0
  9
$PUCSORGTOP
 10
0.0
 20
0.0
 30
0.0
  9
$PUCSORGBOTTOM
 10
0.0
 20
0.0
 30
0.0
  9
$PUCSORGLEFT
 10
0.0
 20
0.0
 30
0.0
  9
$PUCSORGRIGHT
 10
0.0
 20
0.0
 30
0.0
  9
$PUCSORGFRONT
 10
0.0
 20
0.0
 30
0.0
  9
$PUCSORGBACK
 10
0.0
 20
0.0
 30
0.0
  9
$USERI1
 70
     0
  9
$USERI2
 70
     0
  9
$USERI3
 70
     0
  9
$USERI4
 70
     0
  9
$USERI5
 70
     0
  9
$USERR1
 40
0.0
  9
$USERR2
 40
0.0
  9
$USERR3
 40
0.0
  9
$USERR4
 40
0.0
  9
$USERR5
 40
0.0
  9
$WORLDVIEW
 70
     1
  9
$SHADEDGE
 70
     3
  9
$SHADEDIF
 70
    70
  9
$TILEMODE
 70
     1
  9
$MAXACTVP
 70
    48
  9
$PINSBASE
 10
0.0
 20
0.0
 30
0.0
  9
$PLIMCHECK
 70
     0
  9
$PEXTMIN
 10
1.000000000000000E+20
 20
1.000000000000000E+20
 30
1.000000000000000E+20
  9
$PEXTMAX
 10
-1.000000000000000E+20
 20
-1.000000000000000E+20
 30
-1.000000000000000E+20
  9
$PLIMMIN
 10
0.0
 20
0.0
  9
$PLIMMAX
 10
420.0
 20
297.0
  9
$UNITMODE
 70
     0
  9
$VISRETAIN
 70
     1
  9
$PLINEGEN
 70
     0
  9
$PSLTSCALE
 70
     1
  9
$TREEDEPTH
 70
  3020
  9
$CMLSTYLE
  2
STANDARD
  9
$CMLJUST
 70
     0
  9
$CMLSCALE
 40
20.0
  9
$PROXYGRAPHICS
 70
     1
  9
$MEASUREMENT
 70
     0
  9
$CELWEIGHT
370
    -1
  9
$ENDCAPS
280
     0
  9
$JOINSTYLE
280
     0
  9
$LWDISPLAY
290
     0
  9
$INSUNITS
 70
     0
  9
$HYPERLINKBASE
  1

  9
$STYLESHEET
  1
MONOCHROME.CTB
  9
$XEDIT
290
     1
  9
$CEPSNTYPE
380
     0
  9
$PSTYLEMODE
290
     1
  9
$FINGERPRINTGUID
  2
{45F74D6B-FF62-11D4-ACAE-E27B66B9A42E}
  9
$VERSIONGUID
  2
{B55D0EB3-FDFE-4326-9AA0-716DBE5C792B}
  9
$EXTNAMES
290
     1
  9
$PSVPSCALE
 40
0.0
  9
$OLESTARTUP
290
     0
  0
ENDSEC
  0
SECTION
  2
CLASSES
  0
CLASS
  1
LWPOLYLINE
  2
AcDbPolyline
  3
AutoCAD 2000
 90
    32768
280
     0
281
     1
  0
CLASS
  1
OLE2FRAME
  2
AcDbOle2Frame
  3
AutoCAD 2000
 90
    32768
280
     0
281
     1
  0
CLASS
  1
DICTIONARYVAR
  2
AcDbDictionaryVar
  3
AutoCAD 2000
 90
        0
280
     0
281
     0
  0
CLASS
  1
ACDBDICTIONARYWDFLT
  2
AcDbDictionaryWithDefault
  3
AutoCAD 2000
 90
        0
280
     0
281
     0
  0
CLASS
  1
ACDBPLACEHOLDER
  2
AcDbPlaceHolder
  3
AutoCAD 2000
 90
        0
280
     0
281
     0
  0
CLASS
  1
LAYOUT
  2
AcDbLayout
  3
AutoCAD 2000
 90
        0
280
     0
281
     0
  0
CLASS
  1
DIMASSOC
  2
AcDbDimAssoc
  3
"AcDbDimAssoc|Product Desc:     AcDim ARX App For Dimension|Company:          Autodesk, Inc.|WEB Address:      www.autodesk.com"
 90
    32768
280
     0
281
     0
  0
ENDSEC
  0
SECTION
  2
TABLES
  0
TABLE
  2
VPORT
  5
19
330
0
100
AcDbSymbolTable
 70
     2
  0
VPORT
  5
76A
330
19
100
AcDbSymbolTableRecord
100
AcDbViewportTableRecord
  2
*Active
 70
     0
 10
0.0
 20
0.0
 11
1.0
 21
1.0
 12
372.8240175381882
 22
-555.7968021250482
 13
0.0
 23
0.0
 14
10.0
 24
10.0
 15
10.0
 25
10.0
 16
0.0
 26
0.0
 36
1.0
 17
0.0
 27
0.0
 37
0.0
 40
1074.321431182331
 41
0.7240000000000001
 42
50.0
 43
0.0
 44
0.0
 50
0.0
 51
0.0
 71
     0
 72
   100
 73
     1
 74
     1
 75
     0
 76
     0
 77
     0
 78
     0
281
     0
 65
     1
110
0.0
120
0.0
130
0.0
111
1.0
121
0.0
131
0.0
112
0.0
122
1.0
132
0.0
 79
     0
146
0.0
  0
ENDTAB
  0
TABLE
  2
LTYPE
  5
14
330
0
100
AcDbSymbolTable
 70
     4
  0
LTYPE
  5
15
330
14
100
AcDbSymbolTableRecord
100
AcDbLinetypeTableRecord
  2
BYBLOCK
 70
     0
  3

 72
    65
 73
     0
 40
0.0
  0
LTYPE
  5
16
330
14
100
AcDbSymbolTableRecord
100
AcDbLinetypeTableRecord
  2
BYLAYER
 70
     0
  3

 72
    65
 73
     0
 40
0.0
  0
LTYPE
  5
8
330
14
100
AcDbSymbolTableRecord
100
AcDbLinetypeTableRecord
  2
CONTINUOUS
 70
     0
  3
Solid line
 72
    65
 73
     0
 40
0.0
  0
LTYPE
  5
29
330
14
100
AcDbSymbolTableRecord
100
AcDbLinetypeTableRecord
  2
CENTER2
 70
     0
  3
Center (.5x) ___ _ ___ _ ___ _ ___ _ ___ _ ___
 72
    65
 73
     4
 40
28.57499999999999
 49
19.05
 74
     0
 49
-3.174999999999998
 74
     0
 49
3.174999999999998
 74
     0
 49
-3.174999999999998
 74
     0
  0
LTYPE
  5
4F
330
14
100
AcDbSymbolTableRecord
100
AcDbLinetypeTableRecord
  2
CENTER
 70
     0
  3
Center ____ _ ____ _ ____ _ ____ _ ____ _ ____
 72
    65
 73
     4
 40
50.8
 49
31.75
 74
     0
 49
-6.349999999999998
 74
     0
 49
6.349999999999998
 74
     0
 49
-6.349999999999998
 74
     0
  0
LTYPE
  5
F5
330
14
100
AcDbSymbolTableRecord
100
AcDbLinetypeTableRecord
  2
HIDDEN
 70
     0
  3
Hidden __ __ __ __ __ __ __ __ __ __ __ __ __ _
 72
    65
 73
     2
 40
9.524999999999996
 49
6.349999999999998
 74
     0
 49
-3.174999999999998
 74
     0
  0
ENDTAB
  0
TABLE
  2
LAYER
  5
10
330
0
100
AcDbSymbolTable
 70
     9
  0
LAYER
  5
4
330
10
100
AcDbSymbolTableRecord
100
AcDbLayerTableRecord
  2
0
 70
     0
 62
     7
  6
CONTINUOUS
370
    -3
390
5
  0
LAYER
  5
28
330
10
100
AcDbSymbolTableRecord
100
AcDbLayerTableRecord
  2
画層1
 70
     0
 62
     7
  6
CONTINUOUS
370
    -3
390
5
  0
LAYER
  5
40E
330
10
100
AcDbSymbolTableRecord
100
AcDbLayerTableRecord
  2
1
 70
     0
 62
     7
  6
CONTINUOUS
370
    -3
390
5
  0
LAYER
  5
3C
330
10
100
AcDbSymbolTableRecord
100
AcDbLayerTableRecord
  2
Defpoints
 70
     0
 62
     7
  6
CONTINUOUS
290
     0
370
    -3
390
5
  0
LAYER
  5
4E
330
10
100
AcDbSymbolTableRecord
100
AcDbLayerTableRecord
  2
Center
 70
     0
 62
     1
  6
CENTER
370
    -3
390
5
  0
LAYER
  5
23
330
10
100
AcDbSymbolTableRecord
100
AcDbLayerTableRecord
  2
Dims
 70
     0
 62
     6
  6
CONTINUOUS
370
    -3
390
5
  0
LAYER
  5
F4
330
10
100
AcDbSymbolTableRecord
100
AcDbLayerTableRecord
  2
Hidden
 70
     0
 62
     4
  6
HIDDEN
370
    -3
390
5
  0
LAYER
  5
CB
330
10
100
AcDbSymbolTableRecord
100
AcDbLayerTableRecord
  2
Text
 70
     0
 62
     3
  6
CONTINUOUS
370
    -3
390
5
  0
LAYER
  5
2C
330
10
100
AcDbSymbolTableRecord
100
AcDbLayerTableRecord
  2
Object
 70
     0
 62
     7
  6
CONTINUOUS
370
    -3
390
5
  0
ENDTAB
  0
TABLE
  2
STYLE
  5
11
330
0
100
AcDbSymbolTable
 70
     2
  0
STYLE
  5
12
330
11
100
AcDbSymbolTableRecord
100
AcDbTextStyleTableRecord
  2
STANDARD
 70
     0
 40
0.0
 41
1.0
 50
0.0
 71
     0
 42
2.0
  3
romans.shx
  4
bigfont.shx
  0
STYLE
  5
AA
330
11
100
AcDbSymbolTableRecord
100
AcDbTextStyleTableRecord
  2
Roman
 70
     0
 40
0.0
 41
1.0
 50
0.0
 71
     0
 42
5.0
  3
romans.shx
  4
bigfont.shx
  0
ENDTAB
  0
TABLE
  2
VIEW
  5
17
330
0
100
AcDbSymbolTable
 70
     0
  0
ENDTAB
  0
TABLE
  2
UCS
  5
18
330
0
100
AcDbSymbolTable
 70
     0
  0
ENDTAB
  0
TABLE
  2
APPID
  5
1B
330
0
100
AcDbSymbolTable
 70
     1
  0
APPID
  5
1C
330
1B
100
AcDbSymbolTableRecord
100
AcDbRegAppTableRecord
  2
ACAD
 70
     0
  0
ENDTAB
  0
TABLE
  2
DIMSTYLE
  5
1D
330
0
100
AcDbSymbolTable
 70
     2
100
AcDbDimStyleTable
 71
     1
340
1E
  0
DIMSTYLE
105
1E
102
{ACAD_REACTORS
330
189
330
1B4
330
1A5
330
1E8
330
198
330
1FF
330
2F4
330
314
330
2CB
330
5F4
330
9B
330
7E
330
CF
330
AF
330
DF
330
52
330
5F
330
6C
330
473
330
8B
330
6FF
102
}
330
1D
100
AcDbSymbolTableRecord
100
AcDbDimStyleTableRecord
  2
STANDARD
 70
     0
340
12
  0
DIMSTYLE
105
6A1
330
1D
100
AcDbSymbolTableRecord
100
AcDbDimStyleTableRecord
  2
ISO-25
 70
     0
 41
2.5
 42
0.625
 43
3.75
 44
1.25
 73
     0
 74
     0
 77
     1
 78
     8
140
2.5
141
2.5
143
0.03937007874016
147
0.625
171
     3
172
     1
271
     2
272
     2
274
     3
283
     0
284
     8
340
12
  0
ENDTAB
  0
TABLE
  2
BLOCK_RECORD
  5
1
330
0
100
AcDbSymbolTable
 70
    26
  0
BLOCK_RECORD
  5
2
330
1
100
AcDbSymbolTableRecord
100
AcDbBlockTableRecord
  2
*MODEL_SPACE
340
A
  0
BLOCK_RECORD
  5
C
330
1
100
AcDbSymbolTableRecord
100
AcDbBlockTableRecord
  2
*PAPER_SPACE
340
F
  0
BLOCK_RECORD
  5
40C
330
1
100
AcDbSymbolTableRecord
100
AcDbBlockTableRecord
  2
A$C76C73055
340
0
102
{BLKREFS
331
40B
102
}
  0
BLOCK_RECORD
  5
18A
330
1
100
AcDbSymbolTableRecord
100
AcDbBlockTableRecord
  2
*D1
340
0
  0
BLOCK_RECORD
  5
1B5
330
1
100
AcDbSymbolTableRecord
100
AcDbBlockTableRecord
  2
*D2
340
0
  0
BLOCK_RECORD
  5
1A6
330
1
100
AcDbSymbolTableRecord
100
AcDbBlockTableRecord
  2
*D3
340
0
  0
BLOCK_RECORD
  5
1E9
330
1
100
AcDbSymbolTableRecord
100
AcDbBlockTableRecord
  2
*D4
340
0
  0
BLOCK_RECORD
  5
199
330
1
100
AcDbSymbolTableRecord
100
AcDbBlockTableRecord
  2
*D5
340
0
  0
BLOCK_RECORD
  5
200
330
1
100
AcDbSymbolTableRecord
100
AcDbBlockTableRecord
  2
*D6
340
0
  0
BLOCK_RECORD
  5
9C
330
1
100
AcDbSymbolTableRecord
100
AcDbBlockTableRecord
  2
*D7
340
0
  0
BLOCK_RECORD
  5
7F
330
1
100
AcDbSymbolTableRecord
100
AcDbBlockTableRecord
  2
*D8
340
0
  0
BLOCK_RECORD
  5
D0
330
1
100
AcDbSymbolTableRecord
100
AcDbBlockTableRecord
  2
*D9
340
0
  0
BLOCK_RECORD
  5
B0
330
1
100
AcDbSymbolTableRecord
100
AcDbBlockTableRecord
  2
*D10
340
0
  0
BLOCK_RECORD
  5
E0
330
1
100
AcDbSymbolTableRecord
100
AcDbBlockTableRecord
  2
*D11
340
0
  0
BLOCK_RECORD
  5
53
330
1
100
AcDbSymbolTableRecord
100
AcDbBlockTableRecord
  2
*D12
340
0
  0
BLOCK_RECORD
  5
60
330
1
100
AcDbSymbolTableRecord
100
AcDbBlockTableRecord
  2
*D13
340
0
  0
BLOCK_RECORD
  5
3AA
330
1
100
AcDbSymbolTableRecord
100
AcDbBlockTableRecord
  2
LH6M2.6×4-sei
340
0
310
2800000020000000200000000100080000000000000400000000000000000000000000000000000000000000000080000080000000808000800000008000800080800000C0C0C000C0DCC000F0CAA6000020400000206000002080000020A0000020C0000020E00000400000004020000040400000406000004080000040A0
310
000040C0000040E00000600000006020000060400000606000006080000060A0000060C0000060E00000800000008020000080400000806000008080000080A0000080C0000080E00000A0000000A0200000A0400000A0600000A0800000A0A00000A0C00000A0E00000C0000000C0200000C0400000C0600000C0800000C0
310
A00000C0C00000C0E00000E0000000E0200000E0400000E0600000E0800000E0A00000E0C00000E0E00040000000400020004000400040006000400080004000A0004000C0004000E00040200000402020004020400040206000402080004020A0004020C0004020E000404000004040200040404000404060004040800040
310
40A0004040C0004040E00040600000406020004060400040606000406080004060A0004060C0004060E00040800000408020004080400040806000408080004080A0004080C0004080E00040A0000040A0200040A0400040A0600040A0800040A0A00040A0C00040A0E00040C0000040C0200040C0400040C0600040C08000
310
40C0A00040C0C00040C0E00040E0000040E0200040E0400040E0600040E0800040E0A00040E0C00040E0E00080000000800020008000400080006000800080008000A0008000C0008000E00080200000802020008020400080206000802080008020A0008020C0008020E00080400000804020008040400080406000804080
310
008040A0008040C0008040E00080600000806020008060400080606000806080008060A0008060C0008060E00080800000808020008080400080806000808080008080A0008080C0008080E00080A0000080A0200080A0400080A0600080A0800080A0A00080A0C00080A0E00080C0000080C0200080C0400080C0600080C0
310
800080C0A00080C0C00080C0E00080E0000080E0200080E0400080E0600080E0800080E0A00080E0C00080E0E000C0000000C0002000C0004000C0006000C0008000C000A000C000C000C000E000C0200000C0202000C0204000C0206000C0208000C020A000C020C000C020E000C0400000C0402000C0404000C0406000C0
310
408000C040A000C040C000C040E000C0600000C0602000C0604000C0606000C0608000C060A000C060C000C060E000C0800000C0802000C0804000C0806000C0808000C080A000C080C000C080E000C0A00000C0A02000C0A04000C0A06000C0A08000C0A0A000C0A0C000C0A0E000C0C00000C0C02000C0C04000C0C06000
310
C0C08000C0C0A000F0FBFF00A4A0A000808080000000FF0000FF000000FFFF00FF000000FF00FF00FFFF0000FFFFFF00000000000000000000000000000000000000000000000000000000000000000000000000000000000000000000000000FF0000000000000000000000000000000000000000000000000000000000FF
310
FF00FFFF00000000000000000000000000000000000000000000000000FFFF0000000000FFFF000000000000000000000000000000000000000000FFFF00FFFFFFFFFFFF0000FFFF0000000000000000000000000000000000FFFF00FFFF000000000000FFFF0000FFFF00000000000000000000000000FFFF00FFFF000000
310
00000000000000FFFF0000FF000000000000000000000000FFFFFF0000000000000000000000000000FFFF00FF00000000000000000000FFFF000000000000000000000000000000000000FFFF00000000000000000000FFFF00000000000000000000FFFF000000000000FF00FF0000000000000000FFFF00000000000000
310
00FFFFFF0000FF000000000000FFFF0000000000000000FFFF000000000000FFFF0000000000FF000000000000FF00FF000000000000FFFF0000000000FFFF0000000000000000FF000000000000FFFF000000000000FFFF0000000000FF000000000000000000FF000000000000FF00FF00000000FF00FF0000000000FF00
310
000000000000000000FF0000000000FF00FF00000000FF00FF0000000000FF00000000000000000000FF0000000000FF0000FF0000FF0000FF0000000000FF0000000000000000000000FF00000000FF0000FF000000FF00FF0000000000FF00000000000000000000FF0000000000FF00FF00000000FF00FF0000000000FF
310
00000000000000000000FF0000000000FF00FF0000000000FFFF0000000000FFFF0000000000000000FF000000000000FFFF000000000000FF00FF000000000000FFFFFF00000000FF000000000000FF00FF00000000000000FFFF000000000000000000FFFF0000FF000000000000FFFF0000000000000000FF00FF000000
310
00000000000000FFFF000000000000FF00FF000000000000000000FFFF000000000000000000000000000000000000FFFF00000000000000000000FF00FF00000000000000000000000000000000FF00FF0000000000000000000000FF00FFFF000000000000000000000000FFFF00FF00000000000000000000000000FFFF
310
00FFFF0000000000000000FFFF00FFFF00000000000000000000000000000000FFFF00FFFFFFFFFFFFFFFF00FFFF0000000000000000000000000000000000000000FFFF000000000000FFFF000000000000000000000000000000000000000000000000FFFF0000FFFF000000000000000000000000000000000000000000
310
00000000000000FFFF0000000000000000000000000000000000000000000000000000000000000000000000000000000000000000000000
  0
BLOCK_RECORD
  5
6D
330
1
100
AcDbSymbolTableRecord
100
AcDbBlockTableRecord
  2
*D15
340
0
  0
BLOCK_RECORD
  5
8C
330
1
100
AcDbSymbolTableRecord
100
AcDbBlockTableRecord
  2
*D16
340
0
  0
BLOCK_RECORD
  5
5F5
330
1
100
AcDbSymbolTableRecord
100
AcDbBlockTableRecord
  2
*D17
340
0
  0
BLOCK_RECORD
  5
2CC
330
1
100
AcDbSymbolTableRecord
100
AcDbBlockTableRecord
  2
*D18
340
0
  0
BLOCK_RECORD
  5
474
330
1
100
AcDbSymbolTableRecord
100
AcDbBlockTableRecord
  2
*D19
340
0
  0
BLOCK_RECORD
  5
2F5
330
1
100
AcDbSymbolTableRecord
100
AcDbBlockTableRecord
  2
*D20
340
0
  0
BLOCK_RECORD
  5
315
330
1
100
AcDbSymbolTableRecord
100
AcDbBlockTableRecord
  2
*D21
340
0
  0
BLOCK_RECORD
  5
249
330
1
100
AcDbSymbolTableRecord
100
AcDbBlockTableRecord
  2
コネクタ
340
0
310
2800000020000000200000000100080000000000000400000000000000000000000000000000000000000000000080000080000000808000800000008000800080800000C0C0C000C0DCC000F0CAA6000020400000206000002080000020A0000020C0000020E00000400000004020000040400000406000004080000040A0
310
000040C0000040E00000600000006020000060400000606000006080000060A0000060C0000060E00000800000008020000080400000806000008080000080A0000080C0000080E00000A0000000A0200000A0400000A0600000A0800000A0A00000A0C00000A0E00000C0000000C0200000C0400000C0600000C0800000C0
310
A00000C0C00000C0E00000E0000000E0200000E0400000E0600000E0800000E0A00000E0C00000E0E00040000000400020004000400040006000400080004000A0004000C0004000E00040200000402020004020400040206000402080004020A0004020C0004020E000404000004040200040404000404060004040800040
310
40A0004040C0004040E00040600000406020004060400040606000406080004060A0004060C0004060E00040800000408020004080400040806000408080004080A0004080C0004080E00040A0000040A0200040A0400040A0600040A0800040A0A00040A0C00040A0E00040C0000040C0200040C0400040C0600040C08000
310
40C0A00040C0C00040C0E00040E0000040E0200040E0400040E0600040E0800040E0A00040E0C00040E0E00080000000800020008000400080006000800080008000A0008000C0008000E00080200000802020008020400080206000802080008020A0008020C0008020E00080400000804020008040400080406000804080
310
008040A0008040C0008040E00080600000806020008060400080606000806080008060A0008060C0008060E00080800000808020008080400080806000808080008080A0008080C0008080E00080A0000080A0200080A0400080A0600080A0800080A0A00080A0C00080A0E00080C0000080C0200080C0400080C0600080C0
310
800080C0A00080C0C00080C0E00080E0000080E0200080E0400080E0600080E0800080E0A00080E0C00080E0E000C0000000C0002000C0004000C0006000C0008000C000A000C000C000C000E000C0200000C0202000C0204000C0206000C0208000C020A000C020C000C020E000C0400000C0402000C0404000C0406000C0
310
408000C040A000C040C000C040E000C0600000C0602000C0604000C0606000C0608000C060A000C060C000C060E000C0800000C0802000C0804000C0806000C0808000C080A000C080C000C080E000C0A00000C0A02000C0A04000C0A06000C0A08000C0A0A000C0A0C000C0A0E000C0C00000C0C02000C0C04000C0C06000
310
C0C08000C0C0A000F0FBFF00A4A0A000808080000000FF0000FF000000FFFF00FF000000FF00FF00FFFF0000FFFFFF0000000000000000000000000000000000000000000000000000000000000000000000000000000000000000000000000000000000000000000000000000000000000000000000000000000000000000
310
0000000000000000000000000000000000000000000000000000000000000000000000000000000000FFFF0000000000000000000000000000000000000000000000000000000000FFFFFFFFFFFFFFFF0000000000000000000000000000000000000000000000FF00FFFF0000FF00FF000000000000000000000000000000
310
00000000000000FFFFFFFFFF0000FF00FF000000000000000000000000000000000000000000FFFFFF00FFFF0000FF00FF0000000000000000000000000000000000000000FFFFFFFFFFFFFF0000FF00FF00000000000000000000000000000000000000FFFFFFFFFFFFFFFF0000FF00FF0000000000000000000000000000
310
00000000FFFFFF00FFFFFFFFFF0000FF00FF0000FFFFFFFFFFFFFFFFFFFF00000000FFFFFFFFFFFFFFFFFFFFFF0000FF00FF0000000000000000000000FFFFFFFFFFFFFFFF00FFFFFFFFFFFFFF0000FF00FF0000000000000000000000FFFFFFFFFFFF00FFFFFFFFFFFFFFFFFF0000FF00FF0000000000000000000000FFFF
310
FFFFFFFFFFFFFFFFFFFFFFFFFFFF0000FF00FF0000000000000000000000FF00000000FFFF0000FFFFFFFFFFFFFF0000FF00FF0000000000000000000000FFFFFFFFFFFFFFFFFFFFFFFFFFFFFFFF0000FF00FF0000000000000000000000FFFFFFFFFFFFFFFFFFFFFFFFFFFFFFFF0000FF00FF0000000000000000000000FF
310
FFFFFF00FF00FFFFFFFFFFFFFFFFFF0000FF00FF0000000000000000000000FFFFFFFFFFFFFFFF00FFFFFFFFFFFFFF0000FF00FF0000FFFFFFFFFFFFFFFFFFFF00000000FFFFFFFFFFFFFFFFFFFFFF0000FF00FF000000000000000000000000000000000000FFFFFF00FFFFFFFFFF0000FF00FF0000000000000000000000
310
0000000000000000FFFFFFFFFFFFFFFF0000FF00FF0000000000000000000000000000000000000000FFFFFFFFFFFFFF0000FF00FF000000000000000000000000000000000000000000FFFFFF00FFFF0000FF00FF00000000000000000000000000000000000000000000FFFFFFFFFF0000FF00FF00000000000000000000
310
00000000000000000000000000FF00FFFF0000FF00FF000000000000000000000000000000000000000000000000FFFFFFFFFFFFFFFF00000000000000000000000000000000000000000000000000FFFF00000000000000000000000000000000000000000000000000000000000000000000000000000000000000000000
310
0000000000000000000000000000000000000000000000000000000000000000000000000000000000000000000000000000000000000000
  0
BLOCK_RECORD
  5
6A2
330
1
100
AcDbSymbolTableRecord
100
AcDbBlockTableRecord
  2
普通公差（B0405-1991）
340
0
1001
ACAD
1000
DesignCenter Data
1002
{
1070
     1
1070
     4
1002
}
  0
BLOCK_RECORD
  5
700
330
1
100
AcDbSymbolTableRecord
100
AcDbBlockTableRecord
  2
*D24
340
0
  0
BLOCK_RECORD
  5
73F
330
1
100
AcDbSymbolTableRecord
100
AcDbBlockTableRecord
  2
*D25
340
0
  0
ENDTAB
  0
ENDSEC
  0
SECTION
  2
BLOCKS
  0
BLOCK
  5
3
330
2
100
AcDbEntity
  8
0
100
AcDbBlockBegin
  2
*MODEL_SPACE
 70
     2
 10
0.0
 20
0.0
 30
0.0
  3
*MODEL_SPACE
  1

  0
ENDBLK
  5
9
330
2
100
AcDbEntity
  8
0
100
AcDbBlockEnd
  0
BLOCK
  5
D
330
C
100
AcDbEntity
 67
     1
  8
0
100
AcDbBlockBegin
  2
*PAPER_SPACE
 70
     0
 10
0.0
 20
0.0
 30
0.0
  3
*PAPER_SPACE
  1

  0
ENDBLK
  5
E
330
C
100
AcDbEntity
 67
     1
  8
0
100
AcDbBlockEnd
  0
BLOCK
  5
46D
330
40C
100
AcDbEntity
  8
0
 48
10.0
100
AcDbBlockBegin
  2
A$C76C73055
 70
     0
 10
0.0
 20
0.0
 30
0.0
  3
A$C76C73055
  1

  0
LINE
  5
40D
330
40C
100
AcDbEntity
  8
1
  6
Continuous
100
AcDbLine
 10
9.317999597100181
 20
5.993000124702971
 30
0.0
 11
9.999999597100169
 21
5.993000124702971
 31
0.0
  0
LINE
  5
40F
330
40C
100
AcDbEntity
  8
1
  6
Continuous
100
AcDbLine
 10
8.970999597100172
 20
5.793000124702983
 30
0.0
 11
9.999999597100169
 21
5.793000124702983
 31
0.0
  0
LINE
  5
410
330
40C
100
AcDbEntity
  8
1
  6
Continuous
100
AcDbLine
 10
8.624999597100169
 20
5.593000124702966
 30
0.0
 11
9.999999597100169
 21
5.593000124702966
 31
0.0
  0
LINE
  5
411
330
40C
100
AcDbEntity
  8
1
  6
Continuous
100
AcDbLine
 10
8.277999597100174
 20
5.393000124702978
 30
0.0
 11
9.999999597100169
 21
5.393000124702978
 31
0.0
  0
LINE
  5
412
330
40C
100
AcDbEntity
  8
1
  6
Continuous
100
AcDbLine
 10
7.931999597100173
 20
5.193000124702989
 30
0.0
 11
9.999999597100169
 21
5.193000124702989
 31
0.0
  0
LINE
  5
413
330
40C
100
AcDbEntity
  8
1
  6
Continuous
100
AcDbLine
 10
7.585999597100168
 20
4.993000124702972
 30
0.0
 11
9.999999597100169
 21
4.993000124702972
 31
0.0
  0
LINE
  5
414
330
40C
100
AcDbEntity
  8
1
  6
Continuous
100
AcDbLine
 10
7.238999597100161
 20
4.793000124702983
 30
0.0
 11
9.999999597100169
 21
4.793000124702983
 31
0.0
  0
LINE
  5
415
330
40C
100
AcDbEntity
  8
1
  6
Continuous
100
AcDbLine
 10
6.892999597100184
 20
4.593000124702967
 30
0.0
 11
9.999999597100169
 21
4.593000124702967
 31
0.0
  0
LINE
  5
416
330
40C
100
AcDbEntity
  8
1
  6
Continuous
100
AcDbLine
 10
6.546999597100183
 20
4.393000124702978
 30
0.0
 11
9.999999597100169
 21
4.393000124702978
 31
0.0
  0
LINE
  5
417
330
40C
100
AcDbEntity
  8
1
  6
Continuous
100
AcDbLine
 10
6.199999597100172
 20
4.193000124702989
 30
0.0
 11
9.999999597100169
 21
4.193000124702989
 31
0.0
  0
LINE
  5
418
330
40C
100
AcDbEntity
  8
1
  6
Continuous
100
AcDbLine
 10
8.499999597100169
 20
3.993000124702973
 30
0.0
 11
9.999999597100169
 21
3.993000124702973
 31
0.0
  0
LINE
  5
419
330
40C
100
AcDbEntity
  8
1
  6
Continuous
100
AcDbLine
 10
8.499999597100169
 20
3.793000124702984
 30
0.0
 11
9.999999597100169
 21
3.793000124702984
 31
0.0
  0
LINE
  5
41A
330
40C
100
AcDbEntity
  8
1
  6
Continuous
100
AcDbLine
 10
8.499999597100169
 20
3.593000124702966
 30
0.0
 11
9.999999597100169
 21
3.593000124702966
 31
0.0
  0
LINE
  5
41B
330
40C
100
AcDbEntity
  8
1
  6
Continuous
100
AcDbLine
 10
8.499999597100169
 20
3.393000124702978
 30
0.0
 11
9.999999597100169
 21
3.393000124702978
 31
0.0
  0
LINE
  5
41C
330
40C
100
AcDbEntity
  8
1
  6
Continuous
100
AcDbLine
 10
8.499999597100169
 20
3.19300012470299
 30
0.0
 11
9.999999597100169
 21
3.19300012470299
 31
0.0
  0
LINE
  5
41D
330
40C
100
AcDbEntity
  8
1
  6
Continuous
100
AcDbLine
 10
8.499999597100169
 20
2.993000124702973
 30
0.0
 11
9.999999597100169
 21
2.993000124702973
 31
0.0
  0
LINE
  5
41E
330
40C
100
AcDbEntity
  8
1
  6
Continuous
100
AcDbLine
 10
8.499999597100169
 20
2.793000124702984
 30
0.0
 11
9.999999597100169
 21
2.793000124702984
 31
0.0
  0
LINE
  5
41F
330
40C
100
AcDbEntity
  8
1
  6
Continuous
100
AcDbLine
 10
8.499999597100169
 20
2.593000124702966
 30
0.0
 11
9.999999597100169
 21
2.593000124702966
 31
0.0
  0
LINE
  5
420
330
40C
100
AcDbEntity
  8
1
  6
Continuous
100
AcDbLine
 10
8.499999597100169
 20
2.393000124702978
 30
0.0
 11
9.999999597100169
 21
2.393000124702978
 31
0.0
  0
LINE
  5
421
330
40C
100
AcDbEntity
  8
1
  6
Continuous
100
AcDbLine
 10
8.499999597100169
 20
2.19300012470299
 30
0.0
 11
9.999999597100169
 21
2.19300012470299
 31
0.0
  0
LINE
  5
422
330
40C
100
AcDbEntity
  8
1
  6
Continuous
100
AcDbLine
 10
8.499999597100169
 20
1.993000124702973
 30
0.0
 11
9.999999597100169
 21
1.993000124702973
 31
0.0
  0
LINE
  5
423
330
40C
100
AcDbEntity
  8
1
  6
Continuous
100
AcDbLine
 10
8.499999597100169
 20
1.793000124702984
 30
0.0
 11
9.999999597100169
 21
1.793000124702984
 31
0.0
  0
LINE
  5
424
330
40C
100
AcDbEntity
  8
1
  6
Continuous
100
AcDbLine
 10
8.499999597100169
 20
1.593000124702966
 30
0.0
 11
9.999999597100169
 21
1.593000124702966
 31
0.0
  0
LINE
  5
425
330
40C
100
AcDbEntity
  8
1
  6
Continuous
100
AcDbLine
 10
8.499999597100169
 20
1.393000124702979
 30
0.0
 11
9.999999597100169
 21
1.393000124702979
 31
0.0
  0
LINE
  5
426
330
40C
100
AcDbEntity
  8
1
  6
Continuous
100
AcDbLine
 10
8.499999597100169
 20
1.193000124702989
 30
0.0
 11
9.999999597100169
 21
1.193000124702989
 31
0.0
  0
LINE
  5
427
330
40C
100
AcDbEntity
  8
1
  6
Continuous
100
AcDbLine
 10
8.499999597100169
 20
0.9930001247029736
 30
0.0
 11
9.999999597100169
 21
0.9930001247029736
 31
0.0
  0
LINE
  5
428
330
40C
100
AcDbEntity
  8
1
  6
Continuous
100
AcDbLine
 10
8.499999597100169
 20
0.793000124702985
 30
0.0
 11
9.873999597100166
 21
0.793000124702985
 31
0.0
  0
LINE
  5
429
330
40C
100
AcDbEntity
  8
1
  6
Continuous
100
AcDbLine
 10
8.499999597100169
 20
0.0000001247029786
 30
0.0
 11
9.999999597100169
 21
0.8660001247029642
 31
0.0
  0
LINE
  5
42A
330
40C
100
AcDbEntity
  8
1
  6
Continuous
100
AcDbLine
 10
9.999999597100169
 20
6.387000124702978
 30
0.0
 11
8.499999597100169
 21
5.521000124702965
 31
0.0
  0
LINE
  5
42B
330
40C
100
AcDbEntity
  8
1
  6
Continuous
100
AcDbLine
 10
8.499999597100169
 20
7.021000124702965
 30
0.0
 11
9.999999597100169
 21
6.387000124702978
 31
0.0
  0
LINE
  5
42C
330
40C
100
AcDbEntity
  8
1
  6
Continuous
100
AcDbLine
 10
-0.0000004028998291
 20
0.8660001247029642
 30
0.0
 11
-0.0000004028998291
 21
6.387000124702978
 31
0.0
  0
LINE
  5
42D
330
40C
100
AcDbEntity
  8
1
  6
Continuous
100
AcDbLine
 10
2.999999597100169
 20
0.8660001247029642
 30
0.0
 11
2.999999597100169
 21
3.155000124702978
 31
0.0
  0
LINE
  5
42E
330
40C
100
AcDbEntity
  8
1
  6
Continuous
100
AcDbLine
 10
1.49999959710017
 20
4.021000124702965
 30
0.0
 11
1.49999959710017
 21
0.0000001247029786
 31
0.0
  0
LINE
  5
42F
330
40C
100
AcDbEntity
  8
1
  6
Continuous
100
AcDbLine
 10
4.99999959710017
 20
2.000000124702978
 30
0.0
 11
1.49999959710017
 21
4.021000124702965
 31
0.0
  0
LINE
  5
430
330
40C
100
AcDbEntity
  8
1
  6
Continuous
100
AcDbLine
 10
6.99999959710017
 20
0.8660001247029642
 30
0.0
 11
6.99999959710017
 21
3.155000124702978
 31
0.0
  0
LINE
  5
431
330
40C
100
AcDbEntity
  8
1
  6
Continuous
100
AcDbLine
 10
8.499999597100169
 20
4.021000124702965
 30
0.0
 11
8.499999597100169
 21
0.0000001247029786
 31
0.0
  0
LINE
  5
432
330
40C
100
AcDbEntity
  8
1
  6
Continuous
100
AcDbLine
 10
4.99999959710017
 20
2.000000124702978
 30
0.0
 11
8.499999597100169
 21
4.021000124702965
 31
0.0
  0
LINE
  5
433
330
40C
100
AcDbEntity
  8
1
  6
Continuous
100
AcDbLine
 10
-0.0000004028998291
 20
2.393000124702978
 30
0.0
 11
1.49999959710017
 21
2.393000124702978
 31
0.0
  0
LINE
  5
434
330
40C
100
AcDbEntity
  8
1
  6
Continuous
100
AcDbLine
 10
-0.0000004028998291
 20
2.19300012470299
 30
0.0
 11
1.49999959710017
 21
2.19300012470299
 31
0.0
  0
LINE
  5
435
330
40C
100
AcDbEntity
  8
1
  6
Continuous
100
AcDbLine
 10
-0.0000004028998291
 20
1.993000124702973
 30
0.0
 11
1.49999959710017
 21
1.993000124702973
 31
0.0
  0
LINE
  5
436
330
40C
100
AcDbEntity
  8
1
  6
Continuous
100
AcDbLine
 10
-0.0000004028998291
 20
1.793000124702984
 30
0.0
 11
1.49999959710017
 21
1.793000124702984
 31
0.0
  0
LINE
  5
437
330
40C
100
AcDbEntity
  8
1
  6
Continuous
100
AcDbLine
 10
-0.0000004028998291
 20
1.593000124702966
 30
0.0
 11
1.49999959710017
 21
1.593000124702966
 31
0.0
  0
LINE
  5
438
330
40C
100
AcDbEntity
  8
1
  6
Continuous
100
AcDbLine
 10
-0.0000004028998291
 20
1.393000124702979
 30
0.0
 11
1.49999959710017
 21
1.393000124702979
 31
0.0
  0
LINE
  5
439
330
40C
100
AcDbEntity
  8
1
  6
Continuous
100
AcDbLine
 10
-0.0000004028998291
 20
1.193000124702989
 30
0.0
 11
1.49999959710017
 21
1.193000124702989
 31
0.0
  0
LINE
  5
43A
330
40C
100
AcDbEntity
  8
1
  6
Continuous
100
AcDbLine
 10
-0.0000004028998291
 20
0.9930001247029736
 30
0.0
 11
1.49999959710017
 21
0.9930001247029736
 31
0.0
  0
LINE
  5
43B
330
40C
100
AcDbEntity
  8
1
  6
Continuous
100
AcDbLine
 10
0.1259995971001757
 20
0.793000124702985
 30
0.0
 11
1.49999959710017
 21
0.793000124702985
 31
0.0
  0
LINE
  5
43C
330
40C
100
AcDbEntity
  8
1
  6
Continuous
100
AcDbLine
 10
0.4729995971001843
 20
0.5930001247029681
 30
0.0
 11
1.49999959710017
 21
0.5930001247029681
 31
0.0
  0
LINE
  5
43D
330
40C
100
AcDbEntity
  8
1
  6
Continuous
100
AcDbLine
 10
0.8189995971001593
 20
0.3930001247029793
 30
0.0
 11
1.49999959710017
 21
0.3930001247029793
 31
0.0
  0
LINE
  5
43E
330
40C
100
AcDbEntity
  8
1
  6
Continuous
100
AcDbLine
 10
1.49999959710017
 20
0.0000001247029786
 30
0.0
 11
-0.0000004028998291
 21
0.8660001247029642
 31
0.0
  0
LINE
  5
43F
330
40C
100
AcDbEntity
  8
1
  6
Continuous
100
AcDbLine
 10
1.165999597100166
 20
0.1930001247029906
 30
0.0
 11
1.49999959710017
 21
0.1930001247029906
 31
0.0
  0
LINE
  5
440
330
40C
100
AcDbEntity
  8
1
  6
Continuous
100
AcDbLine
 10
1.49999959710017
 20
0.0000001247029786
 30
0.0
 11
2.999999597100169
 21
0.8660001247029642
 31
0.0
  0
LINE
  5
441
330
40C
100
AcDbEntity
  8
1
  6
Continuous
100
AcDbLine
 10
4.318999597100159
 20
2.393000124702978
 30
0.0
 11
5.680999597100168
 21
2.393000124702978
 31
0.0
  0
LINE
  5
442
330
40C
100
AcDbEntity
  8
1
  6
Continuous
100
AcDbLine
 10
4.665999597100166
 20
2.19300012470299
 30
0.0
 11
5.333999597100159
 21
2.19300012470299
 31
0.0
  0
LINE
  5
443
330
40C
100
AcDbEntity
  8
1
  6
Continuous
100
AcDbLine
 10
8.499999597100169
 20
0.5930001247029681
 30
0.0
 11
9.526999597100171
 21
0.5930001247029681
 31
0.0
  0
LINE
  5
444
330
40C
100
AcDbEntity
  8
1
  6
Continuous
100
AcDbLine
 10
8.499999597100169
 20
0.3930001247029793
 30
0.0
 11
9.180999597100168
 21
0.3930001247029793
 31
0.0
  0
LINE
  5
445
330
40C
100
AcDbEntity
  8
1
  6
Continuous
100
AcDbLine
 10
8.499999597100169
 20
0.1930001247029906
 30
0.0
 11
8.833999597100158
 21
0.1930001247029906
 31
0.0
  0
LINE
  5
446
330
40C
100
AcDbEntity
  8
1
  6
Continuous
100
AcDbLine
 10
8.499999597100169
 20
0.0000001247029786
 30
0.0
 11
6.99999959710017
 21
0.8660001247029642
 31
0.0
  0
LINE
  5
447
330
40C
100
AcDbEntity
  8
1
  6
Continuous
100
AcDbLine
 10
1.547999597100171
 20
3.993000124702973
 30
0.0
 11
4.145999597100171
 21
3.993000124702973
 31
0.0
  0
LINE
  5
448
330
40C
100
AcDbEntity
  8
1
  6
Continuous
100
AcDbLine
 10
1.894999597100166
 20
3.793000124702984
 30
0.0
 11
4.49299959710018
 21
3.793000124702984
 31
0.0
  0
LINE
  5
449
330
40C
100
AcDbEntity
  8
1
  6
Continuous
100
AcDbLine
 10
2.24099959710017
 20
3.593000124702966
 30
0.0
 11
4.838999597100168
 21
3.593000124702966
 31
0.0
  0
LINE
  5
44A
330
40C
100
AcDbEntity
  8
1
  6
Continuous
100
AcDbLine
 10
2.587999597100179
 20
3.393000124702978
 30
0.0
 11
7.411999597100177
 21
3.393000124702978
 31
0.0
  0
LINE
  5
44B
330
40C
100
AcDbEntity
  8
1
  6
Continuous
100
AcDbLine
 10
2.933999597100168
 20
3.19300012470299
 30
0.0
 11
7.065999597100173
 21
3.19300012470299
 31
0.0
  0
LINE
  5
44C
330
40C
100
AcDbEntity
  8
1
  6
Continuous
100
AcDbLine
 10
3.279999597100172
 20
2.993000124702973
 30
0.0
 11
6.719999597100168
 21
2.993000124702973
 31
0.0
  0
LINE
  5
44D
330
40C
100
AcDbEntity
  8
1
  6
Continuous
100
AcDbLine
 10
3.62699959710018
 20
2.793000124702984
 30
0.0
 11
6.372999597100174
 21
2.793000124702984
 31
0.0
  0
LINE
  5
44E
330
40C
100
AcDbEntity
  8
1
  6
Continuous
100
AcDbLine
 10
1.49999959710017
 20
7.021000124702965
 30
0.0
 11
4.99999959710017
 21
5.000000124702978
 31
0.0
  0
LINE
  5
44F
330
40C
100
AcDbEntity
  8
1
  6
Continuous
100
AcDbLine
 10
4.99999959710017
 20
3.500000124702978
 30
0.0
 11
1.49999959710017
 21
5.521000124702965
 31
0.0
  0
LINE
  5
450
330
40C
100
AcDbEntity
  8
1
  6
Continuous
100
AcDbLine
 10
-0.0000004028998291
 20
6.387000124702978
 30
0.0
 11
1.49999959710017
 21
5.521000124702965
 31
0.0
  0
LINE
  5
451
330
40C
100
AcDbEntity
  8
1
  6
Continuous
100
AcDbLine
 10
-0.0000004028998291
 20
5.593000124702966
 30
0.0
 11
1.37499959710017
 21
5.593000124702966
 31
0.0
  0
LINE
  5
452
330
40C
100
AcDbEntity
  8
1
  6
Continuous
100
AcDbLine
 10
-0.0000004028998291
 20
5.393000124702978
 30
0.0
 11
1.721999597100178
 21
5.393000124702978
 31
0.0
  0
LINE
  5
453
330
40C
100
AcDbEntity
  8
1
  6
Continuous
100
AcDbLine
 10
-0.0000004028998291
 20
5.193000124702989
 30
0.0
 11
2.067999597100181
 21
5.193000124702989
 31
0.0
  0
LINE
  5
454
330
40C
100
AcDbEntity
  8
1
  6
Continuous
100
AcDbLine
 10
-0.0000004028998291
 20
4.993000124702972
 30
0.0
 11
2.413999597100158
 21
4.993000124702972
 31
0.0
  0
LINE
  5
455
330
40C
100
AcDbEntity
  8
1
  6
Continuous
100
AcDbLine
 10
-0.0000004028998291
 20
4.793000124702983
 30
0.0
 11
2.760999597100166
 21
4.793000124702983
 31
0.0
  0
LINE
  5
456
330
40C
100
AcDbEntity
  8
1
  6
Continuous
100
AcDbLine
 10
-0.0000004028998291
 20
4.593000124702967
 30
0.0
 11
3.106999597100169
 21
4.593000124702967
 31
0.0
  0
LINE
  5
457
330
40C
100
AcDbEntity
  8
1
  6
Continuous
100
AcDbLine
 10
-0.0000004028998291
 20
4.393000124702978
 30
0.0
 11
3.452999597100173
 21
4.393000124702978
 31
0.0
  0
LINE
  5
458
330
40C
100
AcDbEntity
  8
1
  6
Continuous
100
AcDbLine
 10
-0.0000004028998291
 20
4.193000124702989
 30
0.0
 11
3.799999597100167
 21
4.193000124702989
 31
0.0
  0
LINE
  5
459
330
40C
100
AcDbEntity
  8
1
  6
Continuous
100
AcDbLine
 10
-0.0000004028998291
 20
3.993000124702973
 30
0.0
 11
1.49999959710017
 21
3.993000124702973
 31
0.0
  0
LINE
  5
45A
330
40C
100
AcDbEntity
  8
1
  6
Continuous
100
AcDbLine
 10
-0.0000004028998291
 20
3.793000124702984
 30
0.0
 11
1.49999959710017
 21
3.793000124702984
 31
0.0
  0
LINE
  5
45B
330
40C
100
AcDbEntity
  8
1
  6
Continuous
100
AcDbLine
 10
-0.0000004028998291
 20
3.593000124702966
 30
0.0
 11
1.49999959710017
 21
3.593000124702966
 31
0.0
  0
LINE
  5
45C
330
40C
100
AcDbEntity
  8
1
  6
Continuous
100
AcDbLine
 10
-0.0000004028998291
 20
3.393000124702978
 30
0.0
 11
1.49999959710017
 21
3.393000124702978
 31
0.0
  0
LINE
  5
45D
330
40C
100
AcDbEntity
  8
1
  6
Continuous
100
AcDbLine
 10
-0.0000004028998291
 20
3.19300012470299
 30
0.0
 11
1.49999959710017
 21
3.19300012470299
 31
0.0
  0
LINE
  5
45E
330
40C
100
AcDbEntity
  8
1
  6
Continuous
100
AcDbLine
 10
-0.0000004028998291
 20
2.993000124702973
 30
0.0
 11
1.49999959710017
 21
2.993000124702973
 31
0.0
  0
LINE
  5
45F
330
40C
100
AcDbEntity
  8
1
  6
Continuous
100
AcDbLine
 10
-0.0000004028998291
 20
2.793000124702984
 30
0.0
 11
1.49999959710017
 21
2.793000124702984
 31
0.0
  0
LINE
  5
460
330
40C
100
AcDbEntity
  8
1
  6
Continuous
100
AcDbLine
 10
-0.0000004028998291
 20
2.593000124702966
 30
0.0
 11
1.49999959710017
 21
2.593000124702966
 31
0.0
  0
LINE
  5
461
330
40C
100
AcDbEntity
  8
1
  6
Continuous
100
AcDbLine
 10
-0.0000004028998291
 20
6.193000124702989
 30
0.0
 11
0.3359995971001695
 21
6.193000124702989
 31
0.0
  0
LINE
  5
462
330
40C
100
AcDbEntity
  8
1
  6
Continuous
100
AcDbLine
 10
-0.0000004028998291
 20
5.993000124702971
 30
0.0
 11
0.6819995971001731
 21
5.993000124702971
 31
0.0
  0
LINE
  5
463
330
40C
100
AcDbEntity
  8
1
  6
Continuous
100
AcDbLine
 10
-0.0000004028998291
 20
5.793000124702983
 30
0.0
 11
1.028999597100167
 21
5.793000124702983
 31
0.0
  0
LINE
  5
464
330
40C
100
AcDbEntity
  8
1
  6
Continuous
100
AcDbLine
 10
1.49999959710017
 20
7.021000124702965
 30
0.0
 11
-0.0000004028998291
 21
6.387000124702978
 31
0.0
  0
LINE
  5
465
330
40C
100
AcDbEntity
  8
1
  6
Continuous
100
AcDbLine
 10
8.499999597100169
 20
7.021000124702965
 30
0.0
 11
4.99999959710017
 21
5.000000124702978
 31
0.0
  0
LINE
  5
466
330
40C
100
AcDbEntity
  8
1
  6
Continuous
100
AcDbLine
 10
5.853999597100169
 20
3.993000124702973
 30
0.0
 11
8.451999597100169
 21
3.993000124702973
 31
0.0
  0
LINE
  5
467
330
40C
100
AcDbEntity
  8
1
  6
Continuous
100
AcDbLine
 10
5.506999597100174
 20
3.793000124702984
 30
0.0
 11
8.104999597100173
 21
3.793000124702984
 31
0.0
  0
LINE
  5
468
330
40C
100
AcDbEntity
  8
1
  6
Continuous
100
AcDbLine
 10
5.160999597100172
 20
3.593000124702966
 30
0.0
 11
7.758999597100171
 21
3.593000124702966
 31
0.0
  0
LINE
  5
469
330
40C
100
AcDbEntity
  8
1
  6
Continuous
100
AcDbLine
 10
4.99999959710017
 20
3.500000124702978
 30
0.0
 11
8.499999597100169
 21
5.521000124702965
 31
0.0
  0
LINE
  5
46A
330
40C
100
AcDbEntity
  8
1
  6
Continuous
100
AcDbLine
 10
3.972999597100183
 20
2.593000124702966
 30
0.0
 11
6.026999597100171
 21
2.593000124702966
 31
0.0
  0
LINE
  5
46B
330
40C
100
AcDbEntity
  8
1
  6
Continuous
100
AcDbLine
 10
9.999999597100169
 20
0.8660001247029642
 30
0.0
 11
9.999999597100169
 21
6.387000124702978
 31
0.0
  0
LINE
  5
46C
330
40C
100
AcDbEntity
  8
1
  6
Continuous
100
AcDbLine
 10
9.663999597100158
 20
6.193000124702989
 30
0.0
 11
9.999999597100169
 21
6.193000124702989
 31
0.0
  0
ENDBLK
  5
46E
330
40C
100
AcDbEntity
  8
0
 48
10.0
100
AcDbBlockEnd
  0
BLOCK
  5
194
330
18A
100
AcDbEntity
  8
0
 48
0.5
100
AcDbBlockBegin
  2
*D1
 70
     1
 10
0.0
 20
0.0
 30
0.0
  3
*D1
  1

  0
LINE
  5
18B
330
18A
100
AcDbEntity
  8
Dims
 62
     0
 48
0.5
370
    -2
100
AcDbLine
 10
266.7684860159801
 20
-704.3361732873344
 30
0.0
 11
266.7684860159801
 21
-700.2237241031703
 31
0.0
  0
LINE
  5
18C
330
18A
100
AcDbEntity
  8
Dims
 62
     0
 48
0.5
370
    -2
100
AcDbLine
 10
276.7684860159798
 20
-703.8361732873344
 30
0.0
 11
276.7684860159798
 21
-700.2237241031703
 31
0.0
  0
LINE
  5
18D
330
18A
100
AcDbEntity
  8
Dims
 62
     0
 48
0.5
370
    -2
100
AcDbLine
 10
269.2684860159801
 20
-700.8487241031702
 30
0.0
 11
274.2684860159798
 21
-700.8487241031702
 31
0.0
  0
SOLID
  5
18E
330
18A
100
AcDbEntity
  8
Dims
 62
     0
 48
0.5
100
AcDbTrace
 10
269.2684860159801
 20
-700.4320574365038
 30
0.0
 11
269.2684860159801
 21
-701.2653907698369
 31
0.0
 12
266.7684860159801
 22
-700.8487241031702
 32
0.0
 13
266.7684860159801
 23
-700.8487241031702
 33
0.0
  0
SOLID
  5
18F
330
18A
100
AcDbEntity
  8
Dims
 62
     0
 48
0.5
100
AcDbTrace
 10
274.2684860159798
 20
-700.4320574365038
 30
0.0
 11
274.2684860159798
 21
-701.2653907698369
 31
0.0
 12
276.7684860159798
 22
-700.8487241031702
 32
0.0
 13
276.7684860159798
 23
-700.8487241031702
 33
0.0
  0
MTEXT
  5
190
330
18A
100
AcDbEntity
  8
Dims
 62
     0
 48
0.5
100
AcDbMText
 10
269.2205667306572
 20
-698.9737241031702
 30
0.0
 40
2.5
 41
0.0
 71
     5
 72
     1
  1
\A1;10
 73
     1
 44
1.0
  0
POINT
  5
191
330
18A
100
AcDbEntity
  8
Defpoints
 62
     0
 48
0.5
100
AcDbPoint
 10
266.7684860159801
 20
-704.9611732873344
 30
0.0
  0
POINT
  5
192
330
18A
100
AcDbEntity
  8
Defpoints
 62
     0
 48
0.5
100
AcDbPoint
 10
276.7684860159798
 20
-704.4611732873343
 30
0.0
  0
POINT
  5
193
330
18A
100
AcDbEntity
  8
Defpoints
 62
     0
 48
0.5
100
AcDbPoint
 10
276.7684860159798
 20
-700.8487241031702
 30
0.0
  0
ENDBLK
  5
195
330
18A
100
AcDbEntity
  8
0
 48
0.5
100
AcDbBlockEnd
  0
BLOCK
  5
1BF
330
1B5
100
AcDbEntity
  8
0
 48
0.5
100
AcDbBlockBegin
  2
*D2
 70
     1
 10
0.0
 20
0.0
 30
0.0
  3
*D2
  1

  0
LINE
  5
1B6
330
1B5
100
AcDbEntity
  8
Dims
 62
     0
 48
0.5
370
    -2
100
AcDbLine
 10
279.6434860159799
 20
-695.9611732873347
 30
0.0
 11
249.5406894486877
 21
-695.9611732873346
 31
0.0
  0
LINE
  5
1B7
330
1B5
100
AcDbEntity
  8
Dims
 62
     0
 48
0.5
370
    -2
100
AcDbLine
 10
279.6434860159799
 20
-717.9611732873347
 30
0.0
 11
249.5406894486877
 21
-717.9611732873346
 31
0.0
  0
LINE
  5
1B8
330
1B5
100
AcDbEntity
  8
Dims
 62
     0
 48
0.5
370
    -2
100
AcDbLine
 10
250.1656894486878
 20
-698.4611732873347
 30
0.0
 11
250.1656894486877
 21
-715.4611732873346
 31
0.0
  0
SOLID
  5
1B9
330
1B5
100
AcDbEntity
  8
Dims
 62
     0
 48
0.5
100
AcDbTrace
 10
249.7490227820211
 20
-698.4611732873347
 30
0.0
 11
250.5823561153544
 21
-698.4611732873347
 31
0.0
 12
250.1656894486878
 22
-695.9611732873346
 32
0.0
 13
250.1656894486878
 23
-695.9611732873346
 33
0.0
  0
SOLID
  5
1BA
330
1B5
100
AcDbEntity
  8
Dims
 62
     0
 48
0.5
100
AcDbTrace
 10
249.7490227820211
 20
-715.4611732873346
 30
0.0
 11
250.5823561153544
 21
-715.4611732873346
 31
0.0
 12
250.1656894486877
 22
-717.9611732873346
 32
0.0
 13
250.1656894486877
 23
-717.9611732873346
 33
0.0
  0
MTEXT
  5
1BB
330
1B5
100
AcDbEntity
  8
Dims
 62
     0
 48
0.5
100
AcDbMText
 10
248.2906894486879
 20
-712.4887381174251
 30
0.0
 40
2.5
 41
0.0
 71
     5
 72
     1
  1
\A1;φ22
 11
0.0000000000000001
 21
1.0
 31
0.0
 73
     1
 44
1.0
  0
POINT
  5
1BC
330
1B5
100
AcDbEntity
  8
Defpoints
 62
     0
 48
0.5
100
AcDbPoint
 10
280.26848601598
 20
-695.9611732873347
 30
0.0
  0
POINT
  5
1BD
330
1B5
100
AcDbEntity
  8
Defpoints
 62
     0
 48
0.5
100
AcDbPoint
 10
280.26848601598
 20
-717.9611732873347
 30
0.0
  0
POINT
  5
1BE
330
1B5
100
AcDbEntity
  8
Defpoints
 62
     0
 48
0.5
100
AcDbPoint
 10
250.1656894486877
 20
-717.9611732873346
 30
0.0
  0
ENDBLK
  5
1C0
330
1B5
100
AcDbEntity
  8
0
 48
0.5
100
AcDbBlockEnd
  0
BLOCK
  5
1B2
330
1A6
100
AcDbEntity
  8
0
 48
0.5
100
AcDbBlockBegin
  2
*D3
 70
     1
 10
0.0
 20
0.0
 30
0.0
  3
*D3
  1

  0
LINE
  5
1A7
330
1A6
100
AcDbEntity
  8
Dims
 62
     0
 48
0.5
370
    -2
100
AcDbLine
 10
276.1434860159798
 20
-704.4611732873347
 30
0.0
 11
257.0996477373794
 21
-704.4611732873347
 31
0.0
  0
LINE
  5
1A8
330
1A6
100
AcDbEntity
  8
Dims
 62
     0
 48
0.5
370
    -2
100
AcDbLine
 10
266.6434860159798
 20
-709.4611732873344
 30
0.0
 11
257.0996477373794
 21
-709.4611732873344
 31
0.0
  0
LINE
  5
1A9
330
1A6
100
AcDbEntity
  8
Dims
 62
     0
 48
0.5
370
    -2
100
AcDbLine
 10
257.7246477373794
 20
-701.9611732873348
 30
0.0
 11
257.7246477373794
 21
-699.4611732873347
 31
0.0
  0
LINE
  5
1AA
330
1A6
100
AcDbEntity
  8
Dims
 62
     0
 48
0.5
370
    -2
100
AcDbLine
 10
257.7246477373794
 20
-711.9611732873344
 30
0.0
 11
257.7246477373794
 21
-714.4611732873344
 31
0.0
  0
MTEXT
  5
1AB
330
1A6
100
AcDbEntity
  8
Dims
 62
     0
 48
0.5
100
AcDbMText
 10
254.7325589939192
 20
-712.6460366253436
 30
0.0
 40
2.5
 41
0.0
 71
     5
 72
     1
  1
\A1;%%C5
 11
0.0000000000000001
 21
1.0
 31
0.0
 73
     1
 44
1.0
  0
LINE
  5
1AC
330
1A6
100
AcDbEntity
  8
Dims
 62
     0
 48
0.5
370
    -2
100
AcDbLine
 10
257.7246477373794
 20
-704.4611732873347
 30
0.0
 11
257.7246477373794
 21
-709.4611732873344
 31
0.0
  0
SOLID
  5
1AD
330
1A6
100
AcDbEntity
  8
Dims
 62
     0
 48
0.5
100
AcDbTrace
 10
257.3079810707127
 20
-701.9611732873348
 30
0.0
 11
258.1413144040461
 21
-701.9611732873348
 31
0.0
 12
257.7246477373794
 22
-704.4611732873347
 32
0.0
 13
257.7246477373794
 23
-704.4611732873347
 33
0.0
  0
SOLID
  5
1AE
330
1A6
100
AcDbEntity
  8
Dims
 62
     0
 48
0.5
100
AcDbTrace
 10
257.3079810707127
 20
-711.9611732873344
 30
0.0
 11
258.1413144040461
 21
-711.9611732873344
 31
0.0
 12
257.7246477373794
 22
-709.4611732873344
 32
0.0
 13
257.7246477373794
 23
-709.4611732873344
 33
0.0
  0
POINT
  5
1AF
330
1A6
100
AcDbEntity
  8
Defpoints
 62
     0
 48
0.5
100
AcDbPoint
 10
276.7684860159798
 20
-704.4611732873347
 30
0.0
  0
POINT
  5
1B0
330
1A6
100
AcDbEntity
  8
Defpoints
 62
     0
 48
0.5
100
AcDbPoint
 10
267.2684860159798
 20
-709.4611732873344
 30
0.0
  0
POINT
  5
1B1
330
1A6
100
AcDbEntity
  8
Defpoints
 62
     0
 48
0.5
100
AcDbPoint
 10
257.7246477373794
 20
-709.4611732873344
 30
0.0
  0
ENDBLK
  5
1B3
330
1A6
100
AcDbEntity
  8
0
 48
0.5
100
AcDbBlockEnd
  0
BLOCK
  5
1F5
330
1E9
100
AcDbEntity
  8
0
 48
0.5
100
AcDbBlockBegin
  2
*D4
 70
     1
 10
0.0
 20
0.0
 30
0.0
  3
*D4
  1

  0
LINE
  5
1EA
330
1E9
100
AcDbEntity
  8
Dims
 62
     0
 48
0.5
370
    -2
100
AcDbLine
 10
266.1434860159801
 20
-704.9611732873344
 30
0.0
 11
262.2964319233615
 21
-704.9611732873344
 31
0.0
  0
LINE
  5
1EB
330
1E9
100
AcDbEntity
  8
Dims
 62
     0
 48
0.5
370
    -2
100
AcDbLine
 10
266.6434860159798
 20
-709.4611732873344
 30
0.0
 11
262.2964319233615
 21
-709.4611732873344
 31
0.0
  0
LINE
  5
1EC
330
1E9
100
AcDbEntity
  8
Dims
 62
     0
 48
0.5
370
    -2
100
AcDbLine
 10
262.9214319233615
 20
-702.4611732873344
 30
0.0
 11
262.9214319233615
 21
-699.9611732873344
 31
0.0
  0
LINE
  5
1ED
330
1E9
100
AcDbEntity
  8
Dims
 62
     0
 48
0.5
370
    -2
100
AcDbLine
 10
262.9214319233615
 20
-711.9611732873344
 30
0.0
 11
262.9214319233615
 21
-731.4625352300677
 31
0.0
  0
LINE
  5
1EE
330
1E9
100
AcDbEntity
  8
Dims
 62
     0
 48
0.5
370
    -2
100
AcDbLine
 10
262.9214319233615
 20
-704.9611732873344
 30
0.0
 11
262.9214319233615
 21
-709.4611732873344
 31
0.0
  0
SOLID
  5
1EF
330
1E9
100
AcDbEntity
  8
Dims
 62
     0
 48
0.5
100
AcDbTrace
 10
262.5047652566947
 20
-702.4611732873344
 30
0.0
 11
263.3380985900282
 21
-702.4611732873344
 31
0.0
 12
262.9214319233615
 22
-704.9611732873344
 32
0.0
 13
262.9214319233615
 23
-704.9611732873344
 33
0.0
  0
SOLID
  5
1F0
330
1E9
100
AcDbEntity
  8
Dims
 62
     0
 48
0.5
100
AcDbTrace
 10
262.5047652566947
 20
-711.9611732873344
 30
0.0
 11
263.3380985900282
 21
-711.9611732873344
 31
0.0
 12
262.9214319233615
 22
-709.4611732873344
 32
0.0
 13
262.9214319233615
 23
-709.4611732873344
 33
0.0
  0
MTEXT
  5
1F1
330
1E9
100
AcDbEntity
  8
Dims
 62
     0
 48
0.5
100
AcDbMText
 10
261.0464319233615
 20
-728.21848761102
 30
0.0
 40
2.5
 41
0.0
 71
     5
 72
     1
  1
\A1;4.5
 11
0.0000000000000001
 21
1.0
 31
0.0
 73
     1
 44
1.0
  0
POINT
  5
1F2
330
1E9
100
AcDbEntity
  8
Defpoints
 62
     0
 48
0.5
100
AcDbPoint
 10
266.7684860159801
 20
-704.9611732873344
 30
0.0
  0
POINT
  5
1F3
330
1E9
100
AcDbEntity
  8
Defpoints
 62
     0
 48
0.5
100
AcDbPoint
 10
267.2684860159798
 20
-709.4611732873344
 30
0.0
  0
POINT
  5
1F4
330
1E9
100
AcDbEntity
  8
Defpoints
 62
     0
 48
0.5
100
AcDbPoint
 10
262.9214319233615
 20
-709.4611732873344
 30
0.0
  0
ENDBLK
  5
1F6
330
1E9
100
AcDbEntity
  8
0
 48
0.5
100
AcDbBlockEnd
  0
BLOCK
  5
1A3
330
199
100
AcDbEntity
  8
0
 48
0.5
100
AcDbBlockBegin
  2
*D5
 70
     1
 10
0.0
 20
0.0
 30
0.0
  3
*D5
  1

  0
LINE
  5
19A
330
199
100
AcDbEntity
  8
Dims
 62
     0
 48
0.5
370
    -2
100
AcDbLine
 10
266.7684860159801
 20
-709.5861732873347
 30
0.0
 11
266.7684860159801
 21
-742.7203258544749
 31
0.0
  0
LINE
  5
19B
330
199
100
AcDbEntity
  8
Dims
 62
     0
 48
0.5
370
    -2
100
AcDbLine
 10
281.7684860159798
 20
-721.5861732873348
 30
0.0
 11
281.7684860159798
 21
-742.7203258544749
 31
0.0
  0
LINE
  5
19C
330
199
100
AcDbEntity
  8
Dims
 62
     0
 48
0.5
370
    -2
100
AcDbLine
 10
269.2684860159801
 20
-742.0953258544749
 30
0.0
 11
279.2684860159798
 21
-742.0953258544749
 31
0.0
  0
SOLID
  5
19D
330
199
100
AcDbEntity
  8
Dims
 62
     0
 48
0.5
100
AcDbTrace
 10
269.2684860159801
 20
-741.6786591878084
 30
0.0
 11
269.2684860159801
 21
-742.5119925211418
 31
0.0
 12
266.7684860159801
 22
-742.0953258544749
 32
0.0
 13
266.7684860159801
 23
-742.0953258544749
 33
0.0
  0
SOLID
  5
19E
330
199
100
AcDbEntity
  8
Dims
 62
     0
 48
0.5
100
AcDbTrace
 10
279.2684860159798
 20
-741.6786591878084
 30
0.0
 11
279.2684860159798
 21
-742.5119925211418
 31
0.0
 12
281.7684860159798
 22
-742.0953258544749
 32
0.0
 13
281.7684860159798
 23
-742.0953258544749
 33
0.0
  0
MTEXT
  5
19F
330
199
100
AcDbEntity
  8
Dims
 62
     0
 48
0.5
100
AcDbMText
 10
270.7100656835064
 20
-740.2203258544751
 30
0.0
 40
2.5
 41
0.0
 71
     5
 72
     1
  1
\A1;15
 73
     1
 44
1.0
  0
POINT
  5
1A0
330
199
100
AcDbEntity
  8
Defpoints
 62
     0
 48
0.5
100
AcDbPoint
 10
266.7684860159801
 20
-708.9611732873347
 30
0.0
  0
POINT
  5
1A1
330
199
100
AcDbEntity
  8
Defpoints
 62
     0
 48
0.5
100
AcDbPoint
 10
281.7684860159798
 20
-720.9611732873347
 30
0.0
  0
POINT
  5
1A2
330
199
100
AcDbEntity
  8
Defpoints
 62
     0
 48
0.5
100
AcDbPoint
 10
281.7684860159798
 20
-742.0953258544749
 30
0.0
  0
ENDBLK
  5
1A4
330
199
100
AcDbEntity
  8
0
 48
0.5
100
AcDbBlockEnd
  0
BLOCK
  5
20C
330
200
100
AcDbEntity
  8
0
 48
0.5
100
AcDbBlockBegin
  2
*D6
 70
     1
 10
0.0
 20
0.0
 30
0.0
  3
*D6
  1

  0
LINE
  5
201
330
200
100
AcDbEntity
  8
Dims
 62
     0
 48
0.5
370
    -2
100
AcDbLine
 10
280.26848601598
 20
-718.5861732873347
 30
0.0
 11
280.26848601598
 21
-730.6433867003923
 31
0.0
  0
LINE
  5
202
330
200
100
AcDbEntity
  8
Dims
 62
     0
 48
0.5
370
    -2
100
AcDbLine
 10
281.7684860159798
 20
-721.5861732873348
 30
0.0
 11
281.7684860159798
 21
-730.6433867003923
 31
0.0
  0
LINE
  5
203
330
200
100
AcDbEntity
  8
Dims
 62
     0
 48
0.5
370
    -2
100
AcDbLine
 10
277.76848601598
 20
-730.0183867003925
 30
0.0
 11
275.2684860159799
 21
-730.0183867003925
 31
0.0
  0
LINE
  5
204
330
200
100
AcDbEntity
  8
Dims
 62
     0
 48
0.5
370
    -2
100
AcDbLine
 10
284.2684860159798
 20
-730.0183867003925
 30
0.0
 11
292.8994383969321
 21
-730.0183867003925
 31
0.0
  0
LINE
  5
205
330
200
100
AcDbEntity
  8
Dims
 62
     0
 48
0.5
370
    -2
100
AcDbLine
 10
280.26848601598
 20
-730.0183867003925
 30
0.0
 11
281.7684860159798
 21
-730.0183867003925
 31
0.0
  0
SOLID
  5
206
330
200
100
AcDbEntity
  8
Dims
 62
     0
 48
0.5
100
AcDbTrace
 10
277.76848601598
 20
-729.6017200337257
 30
0.0
 11
277.76848601598
 21
-730.4350533670591
 31
0.0
 12
280.26848601598
 22
-730.0183867003925
 32
0.0
 13
280.26848601598
 23
-730.0183867003925
 33
0.0
  0
SOLID
  5
207
330
200
100
AcDbEntity
  8
Dims
 62
     0
 48
0.5
100
AcDbTrace
 10
284.2684860159798
 20
-729.6017200337257
 30
0.0
 11
284.2684860159798
 21
-730.4350533670591
 31
0.0
 12
281.7684860159798
 22
-730.0183867003925
 32
0.0
 13
281.7684860159798
 23
-730.0183867003925
 33
0.0
  0
MTEXT
  5
208
330
200
100
AcDbEntity
  8
Dims
 62
     0
 48
0.5
100
AcDbMText
 10
289.833962206456
 20
-728.1433867003925
 30
0.0
 40
2.5
 41
0.0
 71
     5
 72
     1
  1
\A1;1.5
 73
     1
 44
1.0
  0
POINT
  5
209
330
200
100
AcDbEntity
  8
Defpoints
 62
     0
 48
0.5
100
AcDbPoint
 10
280.26848601598
 20
-717.9611732873347
 30
0.0
  0
POINT
  5
20A
330
200
100
AcDbEntity
  8
Defpoints
 62
     0
 48
0.5
100
AcDbPoint
 10
281.7684860159798
 20
-720.9611732873347
 30
0.0
  0
POINT
  5
20B
330
200
100
AcDbEntity
  8
Defpoints
 62
     0
 48
0.5
100
AcDbPoint
 10
281.7684860159798
 20
-730.0183867003925
 30
0.0
  0
ENDBLK
  5
20D
330
200
100
AcDbEntity
  8
0
 48
0.5
100
AcDbBlockEnd
  0
BLOCK
  5
A6
330
9C
100
AcDbEntity
  8
0
 48
0.5
100
AcDbBlockBegin
  2
*D7
 70
     1
 10
0.0
 20
0.0
 30
0.0
  3
*D7
  1

  0
LINE
  5
9D
330
9C
100
AcDbEntity
  8
Dims
 62
     0
 48
0.5
370
    -2
100
AcDbLine
 10
194.0877369854961
 20
-670.0361732873317
 30
0.0
 11
194.0877369854961
 21
-659.4696968287852
 31
0.0
  0
LINE
  5
9E
330
9C
100
AcDbEntity
  8
Dims
 62
     0
 48
0.5
370
    -2
100
AcDbLine
 10
232.6877369854964
 20
-670.0361732873317
 30
0.0
 11
232.6877369854964
 21
-659.4696968287852
 31
0.0
  0
LINE
  5
9F
330
9C
100
AcDbEntity
  8
Dims
 62
     0
 48
0.5
370
    -2
100
AcDbLine
 10
196.587736985496
 20
-660.0946968287852
 30
0.0
 11
230.1877369854965
 21
-660.0946968287852
 31
0.0
  0
SOLID
  5
A0
330
9C
100
AcDbEntity
  8
Dims
 62
     0
 48
0.5
100
AcDbTrace
 10
196.587736985496
 20
-659.6780301621187
 30
0.0
 11
196.587736985496
 21
-660.511363495452
 31
0.0
 12
194.0877369854961
 22
-660.0946968287852
 32
0.0
 13
194.0877369854961
 23
-660.0946968287852
 33
0.0
  0
SOLID
  5
A1
330
9C
100
AcDbEntity
  8
Dims
 62
     0
 48
0.5
100
AcDbTrace
 10
230.1877369854965
 20
-659.6780301621187
 30
0.0
 11
230.1877369854965
 21
-660.511363495452
 31
0.0
 12
232.6877369854964
 22
-660.0946968287852
 32
0.0
 13
232.6877369854964
 23
-660.0946968287852
 33
0.0
  0
MTEXT
  5
A2
330
9C
100
AcDbEntity
  8
Dims
 62
     0
 48
0.5
100
AcDbMText
 10
213.3877369854963
 20
-658.2196968287852
 30
0.0
 40
2.5
 41
0.0
 71
     5
 72
     1
  1
\A1;38.6
 73
     1
 44
1.0
  0
POINT
  5
A3
330
9C
100
AcDbEntity
  8
Defpoints
 62
     0
 48
0.5
100
AcDbPoint
 10
194.0877369854961
 20
-670.6611732873319
 30
0.0
  0
POINT
  5
A4
330
9C
100
AcDbEntity
  8
Defpoints
 62
     0
 48
0.5
100
AcDbPoint
 10
232.6877369854964
 20
-670.6611732873319
 30
0.0
  0
POINT
  5
A5
330
9C
100
AcDbEntity
  8
Defpoints
 62
     0
 48
0.5
100
AcDbPoint
 10
232.6877369854964
 20
-660.0946968287852
 30
0.0
  0
ENDBLK
  5
A7
330
9C
100
AcDbEntity
  8
0
 48
0.5
100
AcDbBlockEnd
  0
BLOCK
  5
89
330
7F
100
AcDbEntity
  8
0
 48
0.5
100
AcDbBlockBegin
  2
*D8
 70
     1
 10
0.0
 20
0.0
 30
0.0
  3
*D8
  1

  0
LINE
  5
80
330
7F
100
AcDbEntity
  8
Dims
 62
     0
 48
0.5
370
    -2
100
AcDbLine
 10
199.3877369854959
 20
-721.5861732873317
 30
0.0
 11
199.3877369854959
 21
-737.863226013191
 31
0.0
  0
LINE
  5
81
330
7F
100
AcDbEntity
  8
Dims
 62
     0
 48
0.5
370
    -2
100
AcDbLine
 10
227.3877369854959
 20
-721.5861732873317
 30
0.0
 11
227.3877369854959
 21
-737.863226013191
 31
0.0
  0
LINE
  5
82
330
7F
100
AcDbEntity
  8
Dims
 62
     0
 48
0.5
370
    -2
100
AcDbLine
 10
201.8877369854959
 20
-737.238226013191
 30
0.0
 11
224.8877369854958
 21
-737.238226013191
 31
0.0
  0
SOLID
  5
83
330
7F
100
AcDbEntity
  8
Dims
 62
     0
 48
0.5
100
AcDbTrace
 10
201.8877369854959
 20
-736.8215593465244
 30
0.0
 11
201.8877369854959
 21
-737.6548926798577
 31
0.0
 12
199.3877369854959
 22
-737.238226013191
 32
0.0
 13
199.3877369854959
 23
-737.238226013191
 33
0.0
  0
SOLID
  5
84
330
7F
100
AcDbEntity
  8
Dims
 62
     0
 48
0.5
100
AcDbTrace
 10
224.8877369854958
 20
-736.8215593465244
 30
0.0
 11
224.8877369854958
 21
-737.6548926798577
 31
0.0
 12
227.3877369854959
 22
-737.238226013191
 32
0.0
 13
227.3877369854959
 23
-737.238226013191
 33
0.0
  0
MTEXT
  5
85
330
7F
100
AcDbEntity
  8
Dims
 62
     0
 48
0.5
100
AcDbMText
 10
210.6460598679299
 20
-735.3632260131909
 30
0.0
 40
2.5
 41
0.0
 71
     5
 72
     1
  1
\A1;28
 73
     1
 44
1.0
  0
POINT
  5
86
330
7F
100
AcDbEntity
  8
Defpoints
 62
     0
 48
0.5
100
AcDbPoint
 10
199.3877369854959
 20
-720.9611732873317
 30
0.0
  0
POINT
  5
87
330
7F
100
AcDbEntity
  8
Defpoints
 62
     0
 48
0.5
100
AcDbPoint
 10
227.3877369854959
 20
-720.9611732873317
 30
0.0
  0
POINT
  5
88
330
7F
100
AcDbEntity
  8
Defpoints
 62
     0
 48
0.5
100
AcDbPoint
 10
227.3877369854959
 20
-737.238226013191
 30
0.0
  0
ENDBLK
  5
8A
330
7F
100
AcDbEntity
  8
0
 48
0.5
100
AcDbBlockEnd
  0
BLOCK
  5
DA
330
D0
100
AcDbEntity
  8
0
 48
0.5
100
AcDbBlockBegin
  2
*D9
 70
     1
 10
0.0
 20
0.0
 30
0.0
  3
*D9
  1

  0
LINE
  5
D1
330
D0
100
AcDbEntity
  8
Dims
 62
     0
 48
0.5
370
    -2
100
AcDbLine
 10
201.8877369854962
 20
-720.3861732873316
 30
0.0
 11
201.8877369854962
 21
-731.9886104014187
 31
0.0
  0
LINE
  5
D2
330
D0
100
AcDbEntity
  8
Dims
 62
     0
 48
0.5
370
    -2
100
AcDbLine
 10
224.8877369854959
 20
-720.3861732873316
 30
0.0
 11
224.8877369854959
 21
-731.9886104014187
 31
0.0
  0
LINE
  5
D3
330
D0
100
AcDbEntity
  8
Dims
 62
     0
 48
0.5
370
    -2
100
AcDbLine
 10
204.3877369854961
 20
-731.3636104014188
 30
0.0
 11
222.3877369854959
 21
-731.3636104014188
 31
0.0
  0
SOLID
  5
D4
330
D0
100
AcDbEntity
  8
Dims
 62
     0
 48
0.5
100
AcDbTrace
 10
204.3877369854961
 20
-730.9469437347521
 30
0.0
 11
204.3877369854961
 21
-731.7802770680852
 31
0.0
 12
201.8877369854962
 22
-731.3636104014188
 32
0.0
 13
201.8877369854962
 23
-731.3636104014188
 33
0.0
  0
SOLID
  5
D5
330
D0
100
AcDbEntity
  8
Dims
 62
     0
 48
0.5
100
AcDbTrace
 10
222.3877369854959
 20
-730.9469437347521
 30
0.0
 11
222.3877369854959
 21
-731.7802770680852
 31
0.0
 12
224.8877369854959
 22
-731.3636104014188
 32
0.0
 13
224.8877369854959
 23
-731.3636104014188
 33
0.0
  0
MTEXT
  5
D6
330
D0
100
AcDbEntity
  8
Dims
 62
     0
 48
0.5
100
AcDbMText
 10
210.6460598679299
 20
-729.4886104014188
 30
0.0
 40
2.5
 41
0.0
 71
     5
 72
     1
  1
\A1;23
 73
     1
 44
1.0
  0
POINT
  5
D7
330
D0
100
AcDbEntity
  8
Defpoints
 62
     0
 48
0.5
100
AcDbPoint
 10
201.8877369854962
 20
-719.7611732873316
 30
0.0
  0
POINT
  5
D8
330
D0
100
AcDbEntity
  8
Defpoints
 62
     0
 48
0.5
100
AcDbPoint
 10
224.8877369854959
 20
-719.7611732873316
 30
0.0
  0
POINT
  5
D9
330
D0
100
AcDbEntity
  8
Defpoints
 62
     0
 48
0.5
100
AcDbPoint
 10
224.8877369854959
 20
-731.3636104014188
 30
0.0
  0
ENDBLK
  5
DB
330
D0
100
AcDbEntity
  8
0
 48
0.5
100
AcDbBlockEnd
  0
BLOCK
  5
BA
330
B0
100
AcDbEntity
  8
0
 48
0.5
100
AcDbBlockBegin
  2
*D10
 70
     1
 10
0.0
 20
0.0
 30
0.0
  3
*D10
  1

  0
LINE
  5
B1
330
B0
100
AcDbEntity
  8
Dims
 62
     0
 48
0.5
370
    -2
100
AcDbLine
 10
198.1627369854959
 20
-720.9611732873317
 30
0.0
 11
184.760354073329
 21
-720.9611732873317
 31
0.0
  0
LINE
  5
B2
330
B0
100
AcDbEntity
  8
Dims
 62
     0
 48
0.5
370
    -2
100
AcDbLine
 10
198.1627369854943
 20
-692.9611732873325
 30
0.0
 11
184.760354073329
 21
-692.9611732873325
 31
0.0
  0
LINE
  5
B3
330
B0
100
AcDbEntity
  8
Dims
 62
     0
 48
0.5
370
    -2
100
AcDbLine
 10
185.3853540733291
 20
-718.4611732873317
 30
0.0
 11
185.3853540733291
 21
-695.4611732873322
 31
0.0
  0
SOLID
  5
B4
330
B0
100
AcDbEntity
  8
Dims
 62
     0
 48
0.5
100
AcDbTrace
 10
184.9686874066625
 20
-718.4611732873317
 30
0.0
 11
185.8020207399958
 21
-718.4611732873317
 31
0.0
 12
185.3853540733291
 22
-720.9611732873317
 32
0.0
 13
185.3853540733291
 23
-720.9611732873317
 33
0.0
  0
SOLID
  5
B5
330
B0
100
AcDbEntity
  8
Dims
 62
     0
 48
0.5
100
AcDbTrace
 10
184.9686874066625
 20
-695.4611732873322
 30
0.0
 11
185.8020207399958
 21
-695.4611732873322
 31
0.0
 12
185.3853540733291
 22
-692.9611732873325
 32
0.0
 13
185.3853540733291
 23
-692.9611732873325
 33
0.0
  0
MTEXT
  5
B6
330
B0
100
AcDbEntity
  8
Dims
 62
     0
 48
0.5
100
AcDbMText
 10
183.5103540733292
 20
-710.195934047417
 30
0.0
 40
2.5
 41
0.0
 71
     5
 72
     1
  1
\A1;28
 11
0.0000000000000001
 21
1.0
 31
0.0
 73
     1
 44
1.0
  0
POINT
  5
B7
330
B0
100
AcDbEntity
  8
Defpoints
 62
     0
 48
0.5
100
AcDbPoint
 10
198.7877369854959
 20
-720.9611732873317
 30
0.0
  0
POINT
  5
B8
330
B0
100
AcDbEntity
  8
Defpoints
 62
     0
 48
0.5
100
AcDbPoint
 10
198.7877369854943
 20
-692.9611732873325
 30
0.0
  0
POINT
  5
B9
330
B0
100
AcDbEntity
  8
Defpoints
 62
     0
 48
0.5
100
AcDbPoint
 10
185.3853540733291
 20
-692.9611732873325
 30
0.0
  0
ENDBLK
  5
BB
330
B0
100
AcDbEntity
  8
0
 48
0.5
100
AcDbBlockEnd
  0
BLOCK
  5
EA
330
E0
100
AcDbEntity
  8
0
 48
0.5
100
AcDbBlockBegin
  2
*D11
 70
     1
 10
0.0
 20
0.0
 30
0.0
  3
*D11
  1

  0
LINE
  5
E1
330
E0
100
AcDbEntity
  8
Dims
 62
     0
 48
0.5
370
    -2
100
AcDbLine
 10
199.9627369854961
 20
-718.4611732873317
 30
0.0
 11
189.3957315628283
 21
-718.4611732873317
 31
0.0
  0
LINE
  5
E2
330
E0
100
AcDbEntity
  8
Dims
 62
     0
 48
0.5
370
    -2
100
AcDbLine
 10
199.9627369854961
 20
-695.4611732873315
 30
0.0
 11
189.3957315628283
 21
-695.4611732873315
 31
0.0
  0
LINE
  5
E3
330
E0
100
AcDbEntity
  8
Dims
 62
     0
 48
0.5
370
    -2
100
AcDbLine
 10
190.0207315628283
 20
-715.9611732873315
 30
0.0
 11
190.0207315628284
 21
-697.9611732873316
 31
0.0
  0
SOLID
  5
E4
330
E0
100
AcDbEntity
  8
Dims
 62
     0
 48
0.5
100
AcDbTrace
 10
189.6040648961617
 20
-715.9611732873315
 30
0.0
 11
190.437398229495
 21
-715.9611732873315
 31
0.0
 12
190.0207315628283
 22
-718.4611732873317
 32
0.0
 13
190.0207315628283
 23
-718.4611732873317
 33
0.0
  0
SOLID
  5
E5
330
E0
100
AcDbEntity
  8
Dims
 62
     0
 48
0.5
100
AcDbTrace
 10
189.6040648961617
 20
-697.9611732873316
 30
0.0
 11
190.437398229495
 21
-697.9611732873316
 31
0.0
 12
190.0207315628284
 22
-695.4611732873315
 32
0.0
 13
190.0207315628284
 23
-695.4611732873315
 33
0.0
  0
MTEXT
  5
E6
330
E0
100
AcDbEntity
  8
Dims
 62
     0
 48
0.5
100
AcDbMText
 10
188.1457315628284
 20
-710.367417527295
 30
0.0
 40
2.5
 41
0.0
 71
     5
 72
     1
  1
\A1;23
 11
0.0000000000000001
 21
1.0
 31
0.0
 73
     1
 44
1.0
  0
POINT
  5
E7
330
E0
100
AcDbEntity
  8
Defpoints
 62
     0
 48
0.5
100
AcDbPoint
 10
200.5877369854961
 20
-718.4611732873317
 30
0.0
  0
POINT
  5
E8
330
E0
100
AcDbEntity
  8
Defpoints
 62
     0
 48
0.5
100
AcDbPoint
 10
200.5877369854961
 20
-695.4611732873315
 30
0.0
  0
POINT
  5
E9
330
E0
100
AcDbEntity
  8
Defpoints
 62
     0
 48
0.5
100
AcDbPoint
 10
190.0207315628284
 20
-695.4611732873315
 30
0.0
  0
ENDBLK
  5
EB
330
E0
100
AcDbEntity
  8
0
 48
0.5
100
AcDbBlockEnd
  0
BLOCK
  5
5D
330
53
100
AcDbEntity
  8
0
 48
0.5
100
AcDbBlockBegin
  2
*D12
 70
     1
 10
0.0
 20
0.0
 30
0.0
  3
*D12
  1

  0
LINE
  5
54
330
53
100
AcDbEntity
  8
Dims
 62
     0
 48
0.5
370
    -2
100
AcDbLine
 10
225.2627369854925
 20
-672.3611732873317
 30
0.0
 11
239.1548547964124
 21
-672.3611732873317
 31
0.0
  0
LINE
  5
55
330
53
100
AcDbEntity
  8
Dims
 62
     0
 48
0.5
370
    -2
100
AcDbLine
 10
225.2627369854925
 20
-706.961173287332
 30
0.0
 11
239.1548547964124
 21
-706.961173287332
 31
0.0
  0
LINE
  5
56
330
53
100
AcDbEntity
  8
Dims
 62
     0
 48
0.5
370
    -2
100
AcDbLine
 10
237.9048547964126
 20
-674.8611732873317
 30
0.0
 11
237.9048547964125
 21
-704.461173287332
 31
0.0
  0
SOLID
  5
57
330
53
100
AcDbEntity
  8
Dims
 62
     0
 48
0.5
100
AcDbTrace
 10
237.4881881297459
 20
-674.8611732873317
 30
0.0
 11
238.3215214630792
 21
-674.8611732873317
 31
0.0
 12
237.9048547964126
 22
-672.3611732873317
 32
0.0
 13
237.9048547964126
 23
-672.3611732873317
 33
0.0
  0
SOLID
  5
58
330
53
100
AcDbEntity
  8
Dims
 62
     0
 48
0.5
100
AcDbTrace
 10
237.4881881297459
 20
-704.461173287332
 30
0.0
 11
238.3215214630792
 21
-704.461173287332
 31
0.0
 12
237.9048547964125
 22
-706.961173287332
 32
0.0
 13
237.9048547964125
 23
-706.961173287332
 33
0.0
  0
MTEXT
  5
59
330
53
100
AcDbEntity
  8
Dims
 62
     0
 48
0.5
100
AcDbMText
 10
236.0298547964127
 20
-689.1354359042802
 30
0.0
 40
2.5
 41
0.0
 71
     5
 72
     1
  1
\A1;34.6
 11
0.0000000000000001
 21
1.0
 31
0.0
 73
     1
 44
1.0
  0
POINT
  5
5A
330
53
100
AcDbEntity
  8
Defpoints
 62
     0
 48
0.5
100
AcDbPoint
 10
224.6377369854925
 20
-672.3611732873317
 30
0.0
  0
POINT
  5
5B
330
53
100
AcDbEntity
  8
Defpoints
 62
     0
 48
0.5
100
AcDbPoint
 10
224.6377369854925
 20
-706.961173287332
 30
0.0
  0
POINT
  5
5C
330
53
100
AcDbEntity
  8
Defpoints
 62
     0
 48
0.5
100
AcDbPoint
 10
237.9048547964125
 20
-706.961173287332
 30
0.0
  0
ENDBLK
  5
5E
330
53
100
AcDbEntity
  8
0
 48
0.5
100
AcDbBlockEnd
  0
BLOCK
  5
6A
330
60
100
AcDbEntity
  8
0
 48
0.5
100
AcDbBlockBegin
  2
*D13
 70
     1
 10
0.0
 20
0.0
 30
0.0
  3
*D13
  1

  0
LINE
  5
61
330
60
100
AcDbEntity
  8
Dims
 62
     0
 48
0.5
370
    -2
100
AcDbLine
 10
227.0127369854959
 20
-668.6611732873302
 30
0.0
 11
243.9175760073383
 21
-668.6611732873302
 31
0.0
  0
LINE
  5
62
330
60
100
AcDbEntity
  8
Dims
 62
     0
 48
0.5
370
    -2
100
AcDbLine
 10
227.0127369854959
 20
-706.961173287332
 30
0.0
 11
243.9175760073382
 21
-706.961173287332
 31
0.0
  0
LINE
  5
63
330
60
100
AcDbEntity
  8
Dims
 62
     0
 48
0.5
370
    -2
100
AcDbLine
 10
242.6675760073384
 20
-671.1611732873302
 30
0.0
 11
242.6675760073384
 21
-704.461173287332
 31
0.0
  0
SOLID
  5
64
330
60
100
AcDbEntity
  8
Dims
 62
     0
 48
0.5
100
AcDbTrace
 10
242.2509093406716
 20
-671.1611732873302
 30
0.0
 11
243.0842426740051
 21
-671.1611732873302
 31
0.0
 12
242.6675760073384
 22
-668.6611732873302
 32
0.0
 13
242.6675760073384
 23
-668.6611732873302
 33
0.0
  0
SOLID
  5
65
330
60
100
AcDbEntity
  8
Dims
 62
     0
 48
0.5
100
AcDbTrace
 10
242.2509093406716
 20
-704.461173287332
 30
0.0
 11
243.084242674005
 21
-704.461173287332
 31
0.0
 12
242.6675760073384
 22
-706.961173287332
 32
0.0
 13
242.6675760073384
 23
-706.961173287332
 33
0.0
  0
MTEXT
  5
66
330
60
100
AcDbEntity
  8
Dims
 62
     0
 48
0.5
100
AcDbMText
 10
240.7925760073384
 20
-687.8111732873309
 30
0.0
 40
2.5
 41
0.0
 71
     5
 72
     1
  1
\A1;38.3
 11
0.0000000000000001
 21
1.0
 31
0.0
 73
     1
 44
1.0
  0
POINT
  5
67
330
60
100
AcDbEntity
  8
Defpoints
 62
     0
 48
0.5
100
AcDbPoint
 10
226.3877369854959
 20
-668.6611732873302
 30
0.0
  0
POINT
  5
68
330
60
100
AcDbEntity
  8
Defpoints
 62
     0
 48
0.5
100
AcDbPoint
 10
226.3877369854959
 20
-706.961173287332
 30
0.0
  0
POINT
  5
69
330
60
100
AcDbEntity
  8
Defpoints
 62
     0
 48
0.5
100
AcDbPoint
 10
242.6675760073384
 20
-706.961173287332
 30
0.0
  0
ENDBLK
  5
6B
330
60
100
AcDbEntity
  8
0
 48
0.5
100
AcDbBlockEnd
  0
BLOCK
  5
3B9
330
3AA
100
AcDbEntity
  8
0
 48
0.5
100
AcDbBlockBegin
  2
LH6M2.6×4-sei
 70
     0
 10
0.0
 20
0.0
 30
0.0
  3
LH6M2.6×4-sei
  1

  0
CIRCLE
  5
3AB
330
3AA
100
AcDbEntity
  8
Object
 48
0.5
100
AcDbCircle
 10
0.0
 20
0.0
 30
0.0
 40
2.649999999999999
  0
ARC
  5
3AC
330
3AA
100
AcDbEntity
  8
Object
 48
0.5
100
AcDbCircle
 10
0.0
 20
0.0
 30
0.0
 40
2.25
100
AcDbArc
 50
42.83958840691805
 51
77.16041159309874
  0
ARC
  5
3AD
330
3AA
100
AcDbEntity
  8
Object
 48
0.5
100
AcDbCircle
 10
0.0
 20
3.870792079972828
 30
0.0
 40
1.75
100
AcDbArc
 50
253.3984504009766
 51
286.6015495990233
  0
ARC
  5
3AE
330
3AA
100
AcDbEntity
  8
Object
 48
0.5
100
AcDbCircle
 10
-3.352204274024187
 20
1.935396039986585
 30
0.0
 40
1.75
100
AcDbArc
 50
313.3984504009738
 51
346.6015495990184
  0
ARC
  5
3AF
330
3AA
100
AcDbEntity
  8
Object
 48
0.5
100
AcDbCircle
 10
-3.352204274024187
 20
-1.935396039986016
 30
0.0
 40
1.75
100
AcDbArc
 50
13.39845040098148
 51
46.60154959902614
  0
ARC
  5
3B0
330
3AA
100
AcDbEntity
  8
Object
 48
0.5
100
AcDbCircle
 10
-0.0000000000005684
 20
-3.870792079972828
 30
0.0
 40
1.75
100
AcDbArc
 50
73.39845040097656
 51
106.6015495990233
  0
ARC
  5
3B1
330
3AA
100
AcDbEntity
  8
Object
 48
0.5
100
AcDbCircle
 10
3.352204274023506
 20
-1.935396039986699
 30
0.0
 40
1.75
100
AcDbArc
 50
133.3984504009737
 51
166.6015495990185
  0
ARC
  5
3B2
330
3AA
100
AcDbEntity
  8
Object
 48
0.5
100
AcDbCircle
 10
3.352204274023846
 20
1.935396039986244
 30
0.0
 40
1.75
100
AcDbArc
 50
193.3984504009814
 51
226.6015495990261
  0
ARC
  5
3B3
330
3AA
100
AcDbEntity
  8
Object
 48
0.5
100
AcDbCircle
 10
0.0
 20
0.0
 30
0.0
 40
2.25
100
AcDbArc
 50
342.8395884069153
 51
17.16041159307641
  0
ARC
  5
3B4
330
3AA
100
AcDbEntity
  8
Object
 48
0.5
100
AcDbCircle
 10
0.0
 20
0.0
 30
0.0
 40
2.25
100
AcDbArc
 50
282.8395884069011
 51
317.1604115930727
  0
ARC
  5
3B5
330
3AA
100
AcDbEntity
  8
Object
 48
0.5
100
AcDbCircle
 10
0.0
 20
0.0
 30
0.0
 40
2.25
100
AcDbArc
 50
222.8395884069088
 51
257.1604115930859
  0
ARC
  5
3B6
330
3AA
100
AcDbEntity
  8
Object
 48
0.5
100
AcDbCircle
 10
0.0
 20
0.0
 30
0.0
 40
2.25
100
AcDbArc
 50
162.8395884068948
 51
197.1604115930763
  0
ARC
  5
3B7
330
3AA
100
AcDbEntity
  8
Object
 48
0.5
100
AcDbCircle
 10
0.0
 20
0.0
 30
0.0
 40
2.25
100
AcDbArc
 50
102.8395884069012
 51
137.1604115930959
  0
CIRCLE
  5
3B8
330
3AA
100
AcDbEntity
  8
Object
 48
0.5
100
AcDbCircle
 10
0.0
 20
0.0
 30
0.0
 40
1.25
  0
ENDBLK
  5
3BA
330
3AA
100
AcDbEntity
  8
0
 48
0.5
100
AcDbBlockEnd
  0
BLOCK
  5
77
330
6D
100
AcDbEntity
  8
0
 48
0.5
100
AcDbBlockBegin
  2
*D15
 70
     1
 10
0.0
 20
0.0
 30
0.0
  3
*D15
  1

  0
LINE
  5
6E
330
6D
100
AcDbEntity
  8
Dims
 62
     0
 48
0.5
370
    -2
100
AcDbLine
 10
214.0127369854963
 20
-706.9611732873318
 30
0.0
 11
239.1551665838145
 21
-706.9611732873318
 31
0.0
  0
LINE
  5
6F
330
6D
100
AcDbEntity
  8
Dims
 62
     0
 48
0.5
370
    -2
100
AcDbLine
 10
214.0127369854963
 20
-720.9611732873303
 30
0.0
 11
239.1551665838145
 21
-720.9611732873303
 31
0.0
  0
LINE
  5
70
330
6D
100
AcDbEntity
  8
Dims
 62
     0
 48
0.5
370
    -2
100
AcDbLine
 10
237.9051665838145
 20
-709.4611732873317
 30
0.0
 11
237.9051665838145
 21
-718.4611732873303
 31
0.0
  0
SOLID
  5
71
330
6D
100
AcDbEntity
  8
Dims
 62
     0
 48
0.5
100
AcDbTrace
 10
237.4884999171479
 20
-709.4611732873317
 30
0.0
 11
238.3218332504812
 21
-709.4611732873317
 31
0.0
 12
237.9051665838145
 22
-706.9611732873318
 32
0.0
 13
237.9051665838145
 23
-706.9611732873318
 33
0.0
  0
SOLID
  5
72
330
6D
100
AcDbEntity
  8
Dims
 62
     0
 48
0.5
100
AcDbTrace
 10
237.4884999171479
 20
-718.4611732873303
 30
0.0
 11
238.3218332504812
 21
-718.4611732873303
 31
0.0
 12
237.9051665838145
 22
-720.9611732873303
 32
0.0
 13
237.9051665838145
 23
-720.9611732873303
 33
0.0
  0
MTEXT
  5
73
330
6D
100
AcDbEntity
  8
Dims
 62
     0
 48
0.5
100
AcDbMText
 10
236.0301665838147
 20
-713.9611732873311
 30
0.0
 40
2.5
 41
0.0
 71
     5
 72
     1
  1
\A1;14
 11
0.0000000000000001
 21
1.0
 31
0.0
 73
     1
 44
1.0
  0
POINT
  5
74
330
6D
100
AcDbEntity
  8
Defpoints
 62
     0
 48
0.5
100
AcDbPoint
 10
213.3877369854963
 20
-706.9611732873318
 30
0.0
  0
POINT
  5
75
330
6D
100
AcDbEntity
  8
Defpoints
 62
     0
 48
0.5
100
AcDbPoint
 10
213.3877369854963
 20
-720.9611732873303
 30
0.0
  0
POINT
  5
76
330
6D
100
AcDbEntity
  8
Defpoints
 62
     0
 48
0.5
100
AcDbPoint
 10
237.9051665838145
 20
-720.9611732873303
 30
0.0
  0
ENDBLK
  5
78
330
6D
100
AcDbEntity
  8
0
 48
0.5
100
AcDbBlockEnd
  0
BLOCK
  5
96
330
8C
100
AcDbEntity
  8
0
 48
0.5
100
AcDbBlockBegin
  2
*D16
 70
     1
 10
0.0
 20
0.0
 30
0.0
  3
*D16
  1

  0
LINE
  5
8D
330
8C
100
AcDbEntity
  8
Dims
 62
     0
 48
0.5
370
    -2
100
AcDbLine
 10
191.7877369854971
 20
-674.2361732873332
 30
0.0
 11
191.7877369854971
 21
-654.404087818871
 31
0.0
  0
LINE
  5
8E
330
8C
100
AcDbEntity
  8
Dims
 62
     0
 48
0.5
370
    -2
100
AcDbLine
 10
234.9877369854951
 20
-674.2361732873332
 30
0.0
 11
234.9877369854951
 21
-654.404087818871
 31
0.0
  0
LINE
  5
8F
330
8C
100
AcDbEntity
  8
Dims
 62
     0
 48
0.5
370
    -2
100
AcDbLine
 10
194.2877369854971
 20
-655.6540878188708
 30
0.0
 11
232.4877369854951
 21
-655.6540878188708
 31
0.0
  0
SOLID
  5
90
330
8C
100
AcDbEntity
  8
Dims
 62
     0
 48
0.5
100
AcDbTrace
 10
194.2877369854971
 20
-655.2374211522042
 30
0.0
 11
194.2877369854971
 21
-656.0707544855374
 31
0.0
 12
191.7877369854971
 22
-655.6540878188708
 32
0.0
 13
191.7877369854971
 23
-655.6540878188708
 33
0.0
  0
SOLID
  5
91
330
8C
100
AcDbEntity
  8
Dims
 62
     0
 48
0.5
100
AcDbTrace
 10
232.4877369854951
 20
-655.2374211522042
 30
0.0
 11
232.4877369854951
 21
-656.0707544855374
 31
0.0
 12
234.9877369854951
 22
-655.6540878188708
 32
0.0
 13
234.9877369854951
 23
-655.6540878188708
 33
0.0
  0
MTEXT
  5
92
330
8C
100
AcDbEntity
  8
Dims
 62
     0
 48
0.5
100
AcDbMText
 10
213.387736985496
 20
-653.7790878188708
 30
0.0
 40
2.5
 41
0.0
 71
     5
 72
     1
  1
\A1;（44）
 73
     1
 44
1.0
  0
POINT
  5
93
330
8C
100
AcDbEntity
  8
Defpoints
 62
     0
 48
0.5
100
AcDbPoint
 10
191.7877369854971
 20
-674.8611732873333
 30
0.0
  0
POINT
  5
94
330
8C
100
AcDbEntity
  8
Defpoints
 62
     0
 48
0.5
100
AcDbPoint
 10
234.9877369854951
 20
-674.8611732873333
 30
0.0
  0
POINT
  5
95
330
8C
100
AcDbEntity
  8
Defpoints
 62
     0
 48
0.5
100
AcDbPoint
 10
234.9877369854951
 20
-655.6540878188708
 30
0.0
  0
ENDBLK
  5
97
330
8C
100
AcDbEntity
  8
0
 48
0.5
100
AcDbBlockEnd
  0
BLOCK
  5
5FF
330
5F5
100
AcDbEntity
  8
0
 48
0.5
100
AcDbBlockBegin
  2
*D17
 70
     1
 10
0.0
 20
0.0
 30
0.0
  3
*D17
  1

  0
LINE
  5
5F6
330
5F5
100
AcDbEntity
  8
Dims
 62
     0
 48
0.5
370
    -2
100
AcDbLine
 10
391.3486777605596
 20
-669.8611732873332
 30
0.0
 11
386.8358776050953
 21
-669.8611732873332
 31
0.0
  0
LINE
  5
5F7
330
5F5
100
AcDbEntity
  8
Dims
 62
     0
 48
0.5
370
    -2
100
AcDbLine
 10
391.3486777605596
 20
-720.961173287333
 30
0.0
 11
386.8358776050953
 21
-720.961173287333
 31
0.0
  0
LINE
  5
5F8
330
5F5
100
AcDbEntity
  8
Dims
 62
     0
 48
0.5
370
    -2
100
AcDbLine
 10
388.0858776050954
 20
-672.3611732873332
 30
0.0
 11
388.0858776050954
 21
-718.4611732873332
 31
0.0
  0
SOLID
  5
5F9
330
5F5
100
AcDbEntity
  8
Dims
 62
     0
 48
0.5
100
AcDbTrace
 10
387.6692109384286
 20
-672.3611732873332
 30
0.0
 11
388.5025442717621
 21
-672.3611732873332
 31
0.0
 12
388.0858776050954
 22
-669.8611732873332
 32
0.0
 13
388.0858776050954
 23
-669.8611732873332
 33
0.0
  0
SOLID
  5
5FA
330
5F5
100
AcDbEntity
  8
Dims
 62
     0
 48
0.5
100
AcDbTrace
 10
387.6692109384286
 20
-718.4611732873332
 30
0.0
 11
388.5025442717621
 21
-718.4611732873332
 31
0.0
 12
388.0858776050954
 22
-720.961173287333
 32
0.0
 13
388.0858776050954
 23
-720.961173287333
 33
0.0
  0
MTEXT
  5
5FB
330
5F5
100
AcDbEntity
  8
Dims
 62
     0
 48
0.5
100
AcDbMText
 10
385.5561157003336
 20
-695.4111732873331
 30
0.0
 40
2.5
 41
0.0
 71
     5
 72
     1
  1
\A1;(51)
 11
0.0000000000000001
 21
1.0
 31
0.0
 73
     1
 44
1.0
  0
POINT
  5
5FC
330
5F5
100
AcDbEntity
  8
Defpoints
 62
     0
 48
0.5
100
AcDbPoint
 10
391.9736777605596
 20
-669.8611732873332
 30
0.0
  0
POINT
  5
5FD
330
5F5
100
AcDbEntity
  8
Defpoints
 62
     0
 48
0.5
100
AcDbPoint
 10
391.9736777605596
 20
-720.961173287333
 30
0.0
  0
POINT
  5
5FE
330
5F5
100
AcDbEntity
  8
Defpoints
 62
     0
 48
0.5
100
AcDbPoint
 10
388.0858776050954
 20
-720.961173287333
 30
0.0
  0
ENDBLK
  5
600
330
5F5
100
AcDbEntity
  8
0
 48
0.5
100
AcDbBlockEnd
  0
BLOCK
  5
2D6
330
2CC
100
AcDbEntity
  8
0
 48
0.5
100
AcDbBlockBegin
  2
*D18
 70
     1
 10
0.0
 20
0.0
 30
0.0
  3
*D18
  1

  0
LINE
  5
2CD
330
2CC
100
AcDbEntity
  8
Dims
 62
     0
 48
0.5
370
    -2
100
AcDbLine
 10
391.9736777605596
 20
-721.5861732873332
 30
0.0
 11
391.9736777605596
 21
-738.3887774104744
 31
0.0
  0
LINE
  5
2CE
330
2CC
100
AcDbEntity
  8
Dims
 62
     0
 48
0.5
370
    -2
100
AcDbLine
 10
430.5736777605599
 20
-721.5861732873332
 30
0.0
 11
430.5736777605599
 21
-738.3887774104744
 31
0.0
  0
LINE
  5
2CF
330
2CC
100
AcDbEntity
  8
Dims
 62
     0
 48
0.5
370
    -2
100
AcDbLine
 10
394.4736777605596
 20
-737.1387774104744
 30
0.0
 11
428.0736777605598
 21
-737.1387774104744
 31
0.0
  0
SOLID
  5
2D0
330
2CC
100
AcDbEntity
  8
Dims
 62
     0
 48
0.5
100
AcDbTrace
 10
394.4736777605596
 20
-736.7221107438076
 30
0.0
 11
394.4736777605596
 21
-737.5554440771409
 31
0.0
 12
391.9736777605596
 22
-737.1387774104744
 32
0.0
 13
391.9736777605596
 23
-737.1387774104744
 33
0.0
  0
SOLID
  5
2D1
330
2CC
100
AcDbEntity
  8
Dims
 62
     0
 48
0.5
100
AcDbTrace
 10
428.0736777605598
 20
-736.7221107438076
 30
0.0
 11
428.0736777605598
 21
-737.5554440771409
 31
0.0
 12
430.5736777605599
 22
-737.1387774104744
 32
0.0
 13
430.5736777605599
 23
-737.1387774104744
 33
0.0
  0
MTEXT
  5
2D2
330
2CC
100
AcDbEntity
  8
Dims
 62
     0
 48
0.5
100
AcDbMText
 10
411.2736777605596
 20
-734.6090155057124
 30
0.0
 40
2.5
 41
0.0
 71
     5
 72
     1
  1
\A1;(39)
 73
     1
 44
1.0
  0
POINT
  5
2D3
330
2CC
100
AcDbEntity
  8
Defpoints
 62
     0
 48
0.5
100
AcDbPoint
 10
391.9736777605596
 20
-720.961173287333
 30
0.0
  0
POINT
  5
2D4
330
2CC
100
AcDbEntity
  8
Defpoints
 62
     0
 48
0.5
100
AcDbPoint
 10
430.5736777605599
 20
-720.961173287333
 30
0.0
  0
POINT
  5
2D5
330
2CC
100
AcDbEntity
  8
Defpoints
 62
     0
 48
0.5
100
AcDbPoint
 10
430.5736777605599
 20
-737.1387774104744
 30
0.0
  0
ENDBLK
  5
2D7
330
2CC
100
AcDbEntity
  8
0
 48
0.5
100
AcDbBlockEnd
  0
BLOCK
  5
47E
330
474
100
AcDbEntity
  8
0
 48
0.5
100
AcDbBlockBegin
  2
*D19
 70
     1
 10
0.0
 20
0.0
 30
0.0
  3
*D19
  1

  0
LINE
  5
475
330
474
100
AcDbEntity
  8
Dims
 62
     0
 48
0.5
370
    -2
100
AcDbLine
 10
360.4434860159808
 20
-668.6611732873318
 30
0.0
 11
375.7589032518865
 21
-668.6611732873318
 31
0.0
  0
LINE
  5
476
330
474
100
AcDbEntity
  8
Dims
 62
     0
 48
0.5
370
    -2
100
AcDbLine
 10
360.4434860159808
 20
-720.9611732873317
 30
0.0
 11
375.7589032518865
 21
-720.9611732873317
 31
0.0
  0
LINE
  5
477
330
474
100
AcDbEntity
  8
Dims
 62
     0
 48
0.5
370
    -2
100
AcDbLine
 10
374.5089032518865
 20
-671.1611732873318
 30
0.0
 11
374.5089032518865
 21
-718.4611732873317
 31
0.0
  0
SOLID
  5
478
330
474
100
AcDbEntity
  8
Dims
 62
     0
 48
0.5
100
AcDbTrace
 10
374.0922365852197
 20
-671.1611732873318
 30
0.0
 11
374.9255699185531
 21
-671.1611732873318
 31
0.0
 12
374.5089032518865
 22
-668.6611732873318
 32
0.0
 13
374.5089032518865
 23
-668.6611732873318
 33
0.0
  0
SOLID
  5
479
330
474
100
AcDbEntity
  8
Dims
 62
     0
 48
0.5
100
AcDbTrace
 10
374.0922365852197
 20
-718.4611732873317
 30
0.0
 11
374.9255699185531
 21
-718.4611732873317
 31
0.0
 12
374.5089032518865
 22
-720.9611732873317
 32
0.0
 13
374.5089032518865
 23
-720.9611732873317
 33
0.0
  0
MTEXT
  5
47A
330
474
100
AcDbEntity
  8
Dims
 62
     0
 48
0.5
100
AcDbMText
 10
372.6339032518865
 20
-694.8111732873317
 30
0.0
 40
2.5
 41
0.0
 71
     5
 72
     1
  1
\A1;（53）
 11
0.0000000000000001
 21
1.0
 31
0.0
 73
     1
 44
1.0
  0
POINT
  5
47B
330
474
100
AcDbEntity
  8
Defpoints
 62
     0
 48
0.5
100
AcDbPoint
 10
359.8184860159808
 20
-668.6611732873318
 30
0.0
  0
POINT
  5
47C
330
474
100
AcDbEntity
  8
Defpoints
 62
     0
 48
0.5
100
AcDbPoint
 10
359.8184860159808
 20
-720.9611732873317
 30
0.0
  0
POINT
  5
47D
330
474
100
AcDbEntity
  8
Defpoints
 62
     0
 48
0.5
100
AcDbPoint
 10
374.5089032518865
 20
-720.9611732873317
 30
0.0
  0
ENDBLK
  5
47F
330
474
100
AcDbEntity
  8
0
 48
0.5
100
AcDbBlockEnd
  0
BLOCK
  5
2FF
330
2F5
100
AcDbEntity
  8
0
 48
0.5
100
AcDbBlockBegin
  2
*D20
 70
     1
 10
0.0
 20
0.0
 30
0.0
  3
*D20
  1

  0
LINE
  5
2F6
330
2F5
100
AcDbEntity
  8
Dims
 62
     0
 48
0.5
370
    -2
100
AcDbLine
 10
366.7184860159801
 20
-710.9861732873333
 30
0.0
 11
366.7184860159801
 21
-743.3453258544751
 31
0.0
  0
LINE
  5
2F7
330
2F5
100
AcDbEntity
  8
Dims
 62
     0
 48
0.5
370
    -2
100
AcDbLine
 10
347.8184860159798
 20
-710.9861732873333
 30
0.0
 11
347.8184860159798
 21
-743.3453258544751
 31
0.0
  0
LINE
  5
2F8
330
2F5
100
AcDbEntity
  8
Dims
 62
     0
 48
0.5
370
    -2
100
AcDbLine
 10
364.2184860159801
 20
-742.0953258544749
 30
0.0
 11
350.3184860159798
 21
-742.0953258544749
 31
0.0
  0
SOLID
  5
2F9
330
2F5
100
AcDbEntity
  8
Dims
 62
     0
 48
0.5
100
AcDbTrace
 10
364.2184860159801
 20
-741.6786591878084
 30
0.0
 11
364.2184860159801
 21
-742.5119925211418
 31
0.0
 12
366.7184860159801
 22
-742.0953258544749
 32
0.0
 13
366.7184860159801
 23
-742.0953258544749
 33
0.0
  0
SOLID
  5
2FA
330
2F5
100
AcDbEntity
  8
Dims
 62
     0
 48
0.5
100
AcDbTrace
 10
350.3184860159798
 20
-741.6786591878084
 30
0.0
 11
350.3184860159798
 21
-742.5119925211418
 31
0.0
 12
347.8184860159798
 22
-742.0953258544749
 32
0.0
 13
347.8184860159798
 23
-742.0953258544749
 33
0.0
  0
MTEXT
  5
2FB
330
2F5
100
AcDbEntity
  8
Dims
 62
     0
 48
0.5
100
AcDbMText
 10
357.26848601598
 20
-739.5655639497131
 30
0.0
 40
2.5
 41
0.0
 71
     5
 72
     1
  1
\A1;(19)
 73
     1
 44
1.0
  0
POINT
  5
2FC
330
2F5
100
AcDbEntity
  8
Defpoints
 62
     0
 48
0.5
100
AcDbPoint
 10
366.7184860159801
 20
-710.3611732873332
 30
0.0
  0
POINT
  5
2FD
330
2F5
100
AcDbEntity
  8
Defpoints
 62
     0
 48
0.5
100
AcDbPoint
 10
347.8184860159798
 20
-710.3611732873332
 30
0.0
  0
POINT
  5
2FE
330
2F5
100
AcDbEntity
  8
Defpoints
 62
     0
 48
0.5
100
AcDbPoint
 10
347.8184860159798
 20
-742.0953258544749
 30
0.0
  0
ENDBLK
  5
300
330
2F5
100
AcDbEntity
  8
0
 48
0.5
100
AcDbBlockEnd
  0
BLOCK
  5
31F
330
315
100
AcDbEntity
  8
0
 48
0.5
100
AcDbBlockBegin
  2
*D21
 70
     1
 10
0.0
 20
0.0
 30
0.0
  3
*D21
  1

  0
LINE
  5
316
330
315
100
AcDbEntity
  8
Dims
 62
     0
 48
0.5
370
    -2
100
AcDbLine
 10
329.2684860159791
 20
-721.5861732873332
 30
0.0
 11
329.2684860159791
 21
-743.3453258544751
 31
0.0
  0
LINE
  5
317
330
315
100
AcDbEntity
  8
Dims
 62
     0
 48
0.5
370
    -2
100
AcDbLine
 10
347.8184860159798
 20
-721.5861732873332
 30
0.0
 11
347.8184860159798
 21
-743.3453258544751
 31
0.0
  0
LINE
  5
318
330
315
100
AcDbEntity
  8
Dims
 62
     0
 48
0.5
370
    -2
100
AcDbLine
 10
331.7684860159792
 20
-742.0953258544749
 30
0.0
 11
345.3184860159798
 21
-742.0953258544749
 31
0.0
  0
SOLID
  5
319
330
315
100
AcDbEntity
  8
Dims
 62
     0
 48
0.5
100
AcDbTrace
 10
331.7684860159792
 20
-741.6786591878084
 30
0.0
 11
331.7684860159792
 21
-742.5119925211418
 31
0.0
 12
329.2684860159791
 22
-742.0953258544749
 32
0.0
 13
329.2684860159791
 23
-742.0953258544749
 33
0.0
  0
SOLID
  5
31A
330
315
100
AcDbEntity
  8
Dims
 62
     0
 48
0.5
100
AcDbTrace
 10
345.3184860159798
 20
-741.6786591878084
 30
0.0
 11
345.3184860159798
 21
-742.5119925211418
 31
0.0
 12
347.8184860159798
 22
-742.0953258544749
 32
0.0
 13
347.8184860159798
 23
-742.0953258544749
 33
0.0
  0
MTEXT
  5
31B
330
315
100
AcDbEntity
  8
Dims
 62
     0
 48
0.5
100
AcDbMText
 10
338.5434860159795
 20
-739.5655639497131
 30
0.0
 40
2.5
 41
0.0
 71
     5
 72
     1
  1
\A1;(18.6)
 73
     1
 44
1.0
  0
POINT
  5
31C
330
315
100
AcDbEntity
  8
Defpoints
 62
     0
 48
0.5
100
AcDbPoint
 10
329.2684860159791
 20
-720.961173287333
 30
0.0
  0
POINT
  5
31D
330
315
100
AcDbEntity
  8
Defpoints
 62
     0
 48
0.5
100
AcDbPoint
 10
347.8184860159798
 20
-720.961173287333
 30
0.0
  0
POINT
  5
31E
330
315
100
AcDbEntity
  8
Defpoints
 62
     0
 48
0.5
100
AcDbPoint
 10
347.8184860159798
 20
-742.0953258544749
 30
0.0
  0
ENDBLK
  5
320
330
315
100
AcDbEntity
  8
0
 48
0.5
100
AcDbBlockEnd
  0
BLOCK
  5
2B8
330
249
100
AcDbEntity
  8
0
 48
0.5
100
AcDbBlockBegin
  2
コネクタ
 70
     0
 10
0.0
 20
0.0
 30
0.0
  3
コネクタ
  1

  0
LINE
  5
24A
330
249
100
AcDbEntity
  8
Object
 48
0.5
100
AcDbLine
 10
-5.800000000000068
 20
-11.60000000000001
 30
0.0
 11
-7.388878964741592
 21
-11.60000000000001
 31
0.0
  0
LINE
  5
24B
330
249
100
AcDbEntity
  8
Object
 48
0.5
100
AcDbLine
 10
-5.800000000000068
 20
-10.40000000000008
 30
0.0
 11
-7.388878964741592
 21
-10.40000000000008
 31
0.0
  0
LINE
  5
24C
330
249
100
AcDbEntity
  8
Object
 48
0.5
100
AcDbLine
 10
-5.800000000000068
 20
-9.600000000000136
 30
0.0
 11
-7.469478823468874
 21
-9.600000000000024
 31
0.0
  0
LINE
  5
24D
330
249
100
AcDbEntity
  8
Object
 48
0.5
100
AcDbLine
 10
-5.800000000000068
 20
-8.400000000000204
 30
0.0
 11
-7.469478823468987
 21
-8.400000000000089
 31
0.0
  0
LINE
  5
24E
330
249
100
AcDbEntity
  8
Object
 48
0.5
100
AcDbLine
 10
-5.800000000000068
 20
-7.600000000000022
 30
0.0
 11
-7.506179620314128
 21
-7.600000000000022
 31
0.0
  0
LINE
  5
24F
330
249
100
AcDbEntity
  8
Object
 48
0.5
100
AcDbLine
 10
-5.800000000000068
 20
-5.600000000000021
 30
0.0
 11
-7.609299761754071
 21
-5.600000000000021
 31
0.0
  0
LINE
  5
250
330
249
100
AcDbEntity
  8
Object
 48
0.5
100
AcDbLine
 10
-5.800000000000068
 20
-6.400000000000089
 30
0.0
 11
-7.506179620314128
 21
-6.400000000000089
 31
0.0
  0
LINE
  5
251
330
249
100
AcDbEntity
  8
Object
 48
0.5
100
AcDbLine
 10
-5.800000000000068
 20
-3.600000000000021
 30
0.0
 11
-7.654710264236996
 21
-3.599999999999908
 31
0.0
  0
LINE
  5
252
330
249
100
AcDbEntity
  8
Object
 48
0.5
100
AcDbLine
 10
-5.800000000000068
 20
-4.400000000000203
 30
0.0
 11
-7.609299761754185
 21
-4.40000000000009
 31
0.0
  0
LINE
  5
253
330
249
100
AcDbEntity
  8
Object
 48
0.5
100
AcDbLine
 10
-5.800000000000068
 20
-0.400000000000091
 30
0.0
 11
-7.800000000000068
 21
-0.400000000000091
 31
0.0
  0
LINE
  5
254
330
249
100
AcDbEntity
  8
Object
 48
0.5
100
AcDbLine
 10
-5.800000000000068
 20
-1.600000000000022
 30
0.0
 11
-7.800000000000068
 21
-1.600000000000022
 31
0.0
  0
LINE
  5
255
330
249
100
AcDbEntity
  8
Object
 48
0.5
100
AcDbLine
 10
-5.800000000000068
 20
-2.400000000000089
 30
0.0
 11
-7.65471026423711
 21
-2.400000000000089
 31
0.0
  0
LINE
  5
256
330
249
100
AcDbEntity
  8
Object
 48
0.5
100
AcDbLine
 10
-5.800000000000068
 20
0.3999999999999772
 30
0.0
 11
-7.800000000000068
 21
0.3999999999999772
 31
0.0
  0
LINE
  5
257
330
249
100
AcDbEntity
  8
Object
 48
0.5
100
AcDbLine
 10
-5.800000000000068
 20
7.599999999999795
 30
0.0
 11
-7.506179620314013
 21
7.599999999999909
 31
0.0
  0
LINE
  5
258
330
249
100
AcDbEntity
  8
Object
 48
0.5
100
AcDbLine
 10
-5.800000000000068
 20
4.399999999999976
 30
0.0
 11
-7.609299761754071
 21
4.399999999999863
 31
0.0
  0
LINE
  5
259
330
249
100
AcDbEntity
  8
Object
 48
0.5
100
AcDbLine
 10
-5.800000000000068
 20
5.599999999999909
 30
0.0
 11
-7.609299761754185
 21
5.599999999999909
 31
0.0
  0
LINE
  5
25A
330
249
100
AcDbEntity
  8
Object
 48
0.5
100
AcDbLine
 10
-5.800000000000068
 20
6.399999999999977
 30
0.0
 11
-7.506179620314013
 21
6.399999999999861
 31
0.0
  0
LINE
  5
25B
330
249
100
AcDbEntity
  8
Object
 48
0.5
100
AcDbLine
 10
-5.800000000000068
 20
8.399999999999861
 30
0.0
 11
-7.469478823468874
 21
8.399999999999861
 31
0.0
  0
LINE
  5
25C
330
249
100
AcDbEntity
  8
Object
 48
0.5
100
AcDbLine
 10
-5.800000000000068
 20
3.599999999999908
 30
0.0
 11
-7.654710264236768
 21
3.599999999999908
 31
0.0
  0
LINE
  5
25D
330
249
100
AcDbEntity
  8
Object
 48
0.5
100
AcDbLine
 10
-5.800000000000068
 20
1.599999999999909
 30
0.0
 11
-7.800000000000068
 21
1.599999999999909
 31
0.0
  0
LINE
  5
25E
330
249
100
AcDbEntity
  8
Object
 48
0.5
100
AcDbLine
 10
-5.800000000000068
 20
2.399999999999977
 30
0.0
 11
-7.654710264236882
 21
2.399999999999977
 31
0.0
  0
LINE
  5
25F
330
249
100
AcDbEntity
  8
Object
 48
0.5
100
AcDbLine
 10
-5.800000000000068
 20
11.59999999999979
 30
0.0
 11
-7.388878964741592
 21
11.59999999999991
 31
0.0
  0
LINE
  5
260
330
249
100
AcDbEntity
  8
Object
 48
0.5
100
AcDbLine
 10
-5.800000000000068
 20
10.39999999999986
 30
0.0
 11
-7.388878964741592
 21
10.39999999999997
 31
0.0
  0
LINE
  5
261
330
249
100
AcDbEntity
  8
Object
 48
0.5
100
AcDbLine
 10
-5.800000000000068
 20
9.599999999999909
 30
0.0
 11
-7.469478823468874
 21
9.599999999999909
 31
0.0
  0
LINE
  5
262
330
249
100
AcDbEntity
  8
Object
 48
0.5
100
AcDbLine
 10
-8.092238800223865
 20
-11.3108339762773
 30
0.0
 11
-14.42381671934197
 21
-5.045830118613821
 31
0.0
  0
ARC
  5
263
330
249
100
AcDbEntity
  8
Object
 48
0.5
100
AcDbCircle
 10
-7.38887896474162
 20
-10.5999999999999
 30
0.0
 40
1.0
100
AcDbArc
 50
225.3028105004748
 51
270.0
  0
LINE
  5
264
330
249
100
AcDbEntity
  8
Object
 48
0.5
100
AcDbLine
 10
-20.12774150761106
 20
5.000000000000113
 30
0.0
 11
-29.62774150761106
 21
5.000000000000226
 31
0.0
  0
LINE
  5
265
330
249
100
AcDbEntity
  8
Object
 48
0.5
100
AcDbLine
 10
-20.12774150761106
 20
-5.0
 30
0.0
 11
-29.62774150761106
 21
-4.999999999999886
 31
0.0
  0
LINE
  5
266
330
249
100
AcDbEntity
  8
Object
 48
0.5
100
AcDbLine
 10
-7.939282666386247
 20
2.358654550886285
 30
0.0
 11
-15.18859738852972
 21
0.2067272455690272
 31
0.0
  0
LINE
  5
267
330
249
100
AcDbEntity
  8
Object
 48
0.5
100
AcDbLine
 10
-20.12774150761106
 20
5.0
 30
0.0
 11
-20.12774150761106
 21
-5.0
 31
0.0
  0
LINE
  5
268
330
249
100
AcDbEntity
  8
Object
 48
0.5
100
AcDbLine
 10
-20.12774150761095
 20
5.0
 30
0.0
 11
-20.12774150761095
 21
-5.0
 31
0.0
  0
ARC
  5
269
330
249
100
AcDbEntity
  8
Object
 48
0.5
100
AcDbCircle
 10
-17.35411261889183
 20
-6.200000000000045
 30
0.0
 40
5.0
100
AcDbArc
 50
57.25227405765721
 51
90.0
  0
ARC
  5
26A
330
249
100
AcDbEntity
  8
Object
 48
0.5
100
AcDbCircle
 10
-17.94061589675416
 20
-8.600000000000022
 30
0.0
 40
5.0
100
AcDbArc
 50
45.30281050047478
 51
90.0
  0
ARC
  5
26B
330
249
100
AcDbEntity
  8
Object
 48
0.5
100
AcDbCircle
 10
-18.08866356810644
 20
-9.899999999999975
 30
0.0
 40
7.5
100
AcDbArc
 50
57.25227405765721
 51
90.0
  0
ARC
  5
26C
330
249
100
AcDbEntity
  8
Object
 48
0.5
100
AcDbCircle
 10
-18.96841848490046
 20
-9.899999999999975
 30
0.0
 40
7.5
100
AcDbArc
 50
45.30281050047478
 51
90.0
  0
LINE
  5
26D
330
249
100
AcDbEntity
  8
Object
 48
0.5
100
AcDbLine
 10
-7.977316719781242
 20
-4.329819078425771
 30
0.0
 11
-15.53027685995732
 21
-1.340401589170709
 31
0.0
  0
LINE
  5
26E
330
249
100
AcDbEntity
  8
Object
 48
0.5
100
AcDbLine
 10
-7.939282666386474
 20
-3.558654550886102
 30
0.0
 11
-14.84039072256348
 21
-1.510090868353698
 31
0.0
  0
LINE
  5
26F
330
249
100
AcDbEntity
  8
Object
 48
0.5
100
AcDbLine
 10
-7.800000000000068
 20
0.3999999999999772
 30
0.0
 11
-15.8850107204621
 21
0.0
 31
0.0
  0
LINE
  5
270
330
249
100
AcDbEntity
  8
Object
 48
0.5
100
AcDbLine
 10
-7.800000000000068
 20
-0.400000000000091
 30
0.0
 11
-15.8850107204621
 21
0.0
 31
0.0
  0
LINE
  5
271
330
249
100
AcDbEntity
  8
Object
 48
0.5
100
AcDbLine
 10
-7.799999999999839
 20
-0.400000000000091
 30
0.0
 11
-15.88501072046199
 21
0.0
 31
0.0
  0
LINE
  5
272
330
249
100
AcDbEntity
  8
Object
 48
0.5
100
AcDbLine
 10
-7.799999999999839
 20
0.3999999999999772
 30
0.0
 11
-15.88501072046199
 21
0.0
 31
0.0
  0
LINE
  5
273
330
249
100
AcDbEntity
  8
Object
 48
0.5
100
AcDbLine
 10
-7.939282666386474
 20
-2.358654550886285
 30
0.0
 11
-15.18859738852938
 21
-0.2067272455690272
 31
0.0
  0
LINE
  5
274
330
249
100
AcDbEntity
  8
Object
 48
0.5
100
AcDbLine
 10
-8.065418224708309
 20
-8.203029407961137
 30
0.0
 11
-14.96960721899358
 21
-3.079333794191483
 31
0.0
  0
LINE
  5
275
330
249
100
AcDbEntity
  8
Object
 48
0.5
100
AcDbLine
 10
-17.94061589675412
 20
-3.600000000000136
 30
0.0
 11
-20.12774150761106
 21
-3.600000000000136
 31
0.0
  0
LINE
  5
276
330
249
100
AcDbEntity
  8
Object
 48
0.5
100
AcDbLine
 10
-18.08866356810642
 20
-2.400000000000089
 30
0.0
 11
-20.12774150761106
 21
-2.400000000000089
 31
0.0
  0
LINE
  5
277
330
249
100
AcDbEntity
  8
Object
 48
0.5
100
AcDbLine
 10
-16.61145939927757
 20
0.0
 30
0.0
 11
-20.12774150761106
 21
0.0
 31
0.0
  0
LINE
  5
278
330
249
100
AcDbEntity
  8
Object
 48
0.5
100
AcDbLine
 10
-16.97468373868514
 20
-1.200000000000159
 30
0.0
 11
-20.12774150761106
 21
-1.200000000000159
 31
0.0
  0
ARC
  5
279
330
249
100
AcDbEntity
  8
Object
 48
0.5
100
AcDbCircle
 10
-16.61145939927759
 20
5.0
 30
0.0
 40
5.0
100
AcDbArc
 50
270.0
 51
286.5332907094738
  0
ARC
  5
27A
330
249
100
AcDbEntity
  8
Object
 48
0.5
100
AcDbCircle
 10
-16.61145939927726
 20
-5.0
 30
0.0
 40
5.0
100
AcDbArc
 50
73.4667092905262
 51
90.0
  0
ARC
  5
27B
330
249
100
AcDbEntity
  8
Object
 48
0.5
100
AcDbCircle
 10
-16.97468373868527
 20
-8.700000000000045
 30
0.0
 40
7.5
100
AcDbArc
 50
73.4667092905262
 51
90.0
  0
LINE
  5
27C
330
249
100
AcDbEntity
  8
Object
100
AcDbLine
 10
-15.88501072046142
 20
0.0
 30
0.0
 11
-16.61145939927723
 21
0.0
 31
0.0
  0
LINE
  5
27D
330
249
100
AcDbEntity
  8
Object
 48
0.5
100
AcDbLine
 10
-8.047120710591228
 20
-6.241060483467206
 30
0.0
 11
-14.64940716750628
 21
-1.994697582664911
 31
0.0
  0
LINE
  5
27E
330
249
100
AcDbEntity
  8
Object
 48
0.5
100
AcDbLine
 10
-7.97731671978147
 20
-5.529819078425588
 30
0.0
 11
-11.03400428818474
 21
-4.319999999999936
 31
0.0
  0
LINE
  5
27F
330
249
100
AcDbEntity
  8
Object
 48
0.5
100
AcDbLine
 10
-8.047120710591228
 20
-7.441060483467026
 30
0.0
 11
-14.03160539102816
 21
-3.592046373997163
 31
0.0
  0
LINE
  5
280
330
249
100
AcDbEntity
  8
Object
 48
0.5
100
AcDbLine
 10
-8.092238800223981
 20
-10.11083397627726
 30
0.0
 11
-13.69321971878207
 21
-4.568745177920844
 31
0.0
  0
LINE
  5
281
330
249
100
AcDbEntity
  8
Object
 48
0.5
100
AcDbLine
 10
-8.065418224708309
 20
-9.403029407961183
 30
0.0
 11
-11.03400428818474
 21
-7.199999999999817
 31
0.0
  0
ARC
  5
282
330
249
100
AcDbEntity
  8
Object
 48
0.5
100
AcDbCircle
 10
-7.38887896474162
 20
-9.399999999999975
 30
0.0
 40
1.0
100
AcDbArc
 50
225.3028105004748
 51
270.0
  0
ARC
  5
283
330
249
100
AcDbEntity
  8
Object
 48
0.5
100
AcDbCircle
 10
-7.469478823468903
 20
-8.599999999999909
 30
0.0
 40
1.0
100
AcDbArc
 50
233.4203711072017
 51
270.0
  0
ARC
  5
284
330
249
100
AcDbEntity
  8
Object
 48
0.5
100
AcDbCircle
 10
-7.469478823469017
 20
-7.399999999999977
 30
0.0
 40
1.0
100
AcDbArc
 50
233.4203711072017
 51
270.0
  0
ARC
  5
285
330
249
100
AcDbEntity
  8
Object
 48
0.5
100
AcDbCircle
 10
-7.506179620314155
 20
-6.599999999999909
 30
0.0
 40
1.0
100
AcDbArc
 50
237.2522740576572
 51
270.0
  0
ARC
  5
286
330
249
100
AcDbEntity
  8
Object
 48
0.5
100
AcDbCircle
 10
-7.506179620314155
 20
-5.399999999999976
 30
0.0
 40
1.0
100
AcDbArc
 50
237.2522740576572
 51
270.0
  0
ARC
  5
287
330
249
100
AcDbEntity
  8
Object
 48
0.5
100
AcDbCircle
 10
-7.609299761754101
 20
-4.599999999999909
 30
0.0
 40
1.0
100
AcDbArc
 50
248.4066301725831
 51
270.0
  0
LINE
  5
288
330
249
100
AcDbEntity
  8
Object
 48
0.5
100
AcDbLine
 10
-7.800000000000068
 20
-1.600000000000135
 30
0.0
 11
-11.03400428818497
 21
-1.440000000000053
 31
0.0
  0
LINE
  5
289
330
249
100
AcDbEntity
  8
Object
 48
0.5
100
AcDbLine
 10
-7.799999999999839
 20
-1.600000000000135
 30
0.0
 11
-11.03400428818485
 21
-1.440000000000053
 31
0.0
  0
ARC
  5
28A
330
249
100
AcDbEntity
  8
Object
 48
0.5
100
AcDbCircle
 10
-7.609299761754214
 20
-3.399999999999976
 30
0.0
 40
1.0
100
AcDbArc
 50
248.4066301725831
 51
270.0
  0
ARC
  5
28B
330
249
100
AcDbEntity
  8
Object
 48
0.5
100
AcDbCircle
 10
-7.654710264237023
 20
-2.599999999999909
 30
0.0
 40
1.0
100
AcDbArc
 50
253.4667092905261
 51
270.0
  0
ARC
  5
28C
330
249
100
AcDbEntity
  8
Object
 48
0.5
100
AcDbCircle
 10
-7.654710264237023
 20
-2.599999999999909
 30
0.0
 40
1.0
100
AcDbArc
 50
253.4667092905261
 51
270.0
  0
ARC
  5
28D
330
249
100
AcDbEntity
  8
Object
 48
0.5
100
AcDbCircle
 10
-7.654710264237137
 20
-1.399999999999977
 30
0.0
 40
1.0
100
AcDbArc
 50
253.4667092905261
 51
270.0
  0
ARC
  5
28E
330
249
100
AcDbEntity
  8
Object
 48
0.5
100
AcDbCircle
 10
-7.654710264236911
 20
-1.399999999999977
 30
0.0
 40
1.0
100
AcDbArc
 50
253.4667092905261
 51
270.0
  0
ARC
  5
28F
330
249
100
AcDbEntity
  8
Object
 48
0.5
100
AcDbCircle
 10
-18.08866356810644
 20
9.899999999999975
 30
0.0
 40
7.5
100
AcDbArc
 50
270.0
 51
302.7477259423426
  0
ARC
  5
290
330
249
100
AcDbEntity
  8
Object
 48
0.5
100
AcDbCircle
 10
-17.94061589675416
 20
8.600000000000022
 30
0.0
 40
5.0
100
AcDbArc
 50
270.0
 51
314.6971894995251
  0
ARC
  5
291
330
249
100
AcDbEntity
  8
Object
 48
0.5
100
AcDbCircle
 10
-18.96841848490046
 20
9.899999999999975
 30
0.0
 40
7.5
100
AcDbArc
 50
270.0
 51
314.6971894995251
  0
ARC
  5
292
330
249
100
AcDbEntity
  8
Object
 48
0.5
100
AcDbCircle
 10
-17.35411261889183
 20
6.200000000000045
 30
0.0
 40
5.0
100
AcDbArc
 50
270.0
 51
302.7477259423426
  0
LINE
  5
293
330
249
100
AcDbEntity
  8
Object
 48
0.5
100
AcDbLine
 10
-7.939282666386474
 20
3.558654550886102
 30
0.0
 11
-14.84039072256348
 21
1.510090868353471
 31
0.0
  0
LINE
  5
294
330
249
100
AcDbEntity
  8
Object
 48
0.5
100
AcDbLine
 10
-7.977316719781242
 20
4.329819078425543
 30
0.0
 11
-15.53027685995732
 21
1.340401589170596
 31
0.0
  0
LINE
  5
295
330
249
100
AcDbEntity
  8
Object
 48
0.5
100
AcDbLine
 10
-8.065418224708309
 20
8.203029407961137
 30
0.0
 11
-14.96960721899358
 21
3.07933379419137
 31
0.0
  0
LINE
  5
296
330
249
100
AcDbEntity
  8
Object
 48
0.5
100
AcDbLine
 10
-17.94061589675412
 20
3.599999999999908
 30
0.0
 11
-20.12774150761106
 21
3.599999999999908
 31
0.0
  0
LINE
  5
297
330
249
100
AcDbEntity
  8
Object
 48
0.5
100
AcDbLine
 10
-18.08866356810642
 20
2.399999999999863
 30
0.0
 11
-20.12774150761106
 21
2.399999999999863
 31
0.0
  0
LINE
  5
298
330
249
100
AcDbEntity
  8
Object
 48
0.5
100
AcDbLine
 10
-16.97468373868514
 20
1.200000000000044
 30
0.0
 11
-20.12774150761106
 21
1.200000000000159
 31
0.0
  0
ARC
  5
299
330
249
100
AcDbEntity
  8
Object
 48
0.5
100
AcDbCircle
 10
-16.97468373868527
 20
8.700000000000045
 30
0.0
 40
7.5
100
AcDbArc
 50
270.0
 51
286.5332907094738
  0
ARC
  5
29A
330
249
100
AcDbEntity
  8
Object
 48
0.5
100
AcDbCircle
 10
-7.506179620314042
 20
5.399999999999976
 30
0.0
 40
1.0
100
AcDbArc
 50
90.0
 51
122.7477259423426
  0
LINE
  5
29B
330
249
100
AcDbEntity
  8
Object
 48
0.5
100
AcDbLine
 10
-8.047120710591228
 20
7.441060483467026
 30
0.0
 11
-14.03160539102816
 21
3.59204637399705
 31
0.0
  0
LINE
  5
29C
330
249
100
AcDbEntity
  8
Object
 48
0.5
100
AcDbLine
 10
-8.092238800223981
 20
10.11083397627714
 30
0.0
 11
-13.69321971878207
 21
4.568745177920617
 31
0.0
  0
LINE
  5
29D
330
249
100
AcDbEntity
  8
Object
 48
0.5
100
AcDbLine
 10
-8.092238800223865
 20
11.31083397627707
 30
0.0
 11
-14.42381671934197
 21
5.045830118613706
 31
0.0
  0
LINE
  5
29E
330
249
100
AcDbEntity
  8
Object
 48
0.5
100
AcDbLine
 10
-8.047120710591228
 20
6.241060483466982
 30
0.0
 11
-14.64940716750628
 21
1.994697582664683
 31
0.0
  0
LINE
  5
29F
330
249
100
AcDbEntity
  8
Object
 48
0.5
100
AcDbLine
 10
-7.97731671978147
 20
5.529819078425588
 30
0.0
 11
-11.03400428818474
 21
4.319999999999936
 31
0.0
  0
LINE
  5
2A0
330
249
100
AcDbEntity
  8
Object
 48
0.5
100
AcDbLine
 10
-7.800000000000068
 20
1.599999999999909
 30
0.0
 11
-11.03400428818497
 21
1.439999999999826
 31
0.0
  0
LINE
  5
2A1
330
249
100
AcDbEntity
  8
Object
 48
0.5
100
AcDbLine
 10
-7.799999999999839
 20
1.599999999999909
 30
0.0
 11
-11.03400428818485
 21
1.439999999999826
 31
0.0
  0
ARC
  5
2A2
330
249
100
AcDbEntity
  8
Object
 48
0.5
100
AcDbCircle
 10
-7.609299761754101
 20
4.600000000000021
 30
0.0
 40
1.0
100
AcDbArc
 50
90.0
 51
111.5933698274167
  0
ARC
  5
2A3
330
249
100
AcDbEntity
  8
Object
 48
0.5
100
AcDbCircle
 10
-7.609299761754101
 20
3.399999999999976
 30
0.0
 40
1.0
100
AcDbArc
 50
90.0
 51
111.5933698274167
  0
ARC
  5
2A4
330
249
100
AcDbEntity
  8
Object
 48
0.5
100
AcDbCircle
 10
-7.654710264236798
 20
2.600000000000021
 30
0.0
 40
1.0
100
AcDbArc
 50
90.0
 51
106.5332907094738
  0
ARC
  5
2A5
330
249
100
AcDbEntity
  8
Object
 48
0.5
100
AcDbCircle
 10
-7.654710264236798
 20
2.600000000000021
 30
0.0
 40
1.0
100
AcDbArc
 50
90.0
 51
106.5332907094738
  0
ARC
  5
2A6
330
249
100
AcDbEntity
  8
Object
 48
0.5
100
AcDbCircle
 10
-7.654710264236798
 20
2.599999999999909
 30
0.0
 40
1.0
100
AcDbArc
 50
90.0
 51
106.5332907094738
  0
ARC
  5
2A7
330
249
100
AcDbEntity
  8
Object
 48
0.5
100
AcDbCircle
 10
-7.654710264236911
 20
1.40000000000009
 30
0.0
 40
1.0
100
AcDbArc
 50
90.0
 51
106.5332907094738
  0
ARC
  5
2A8
330
249
100
AcDbEntity
  8
Object
 48
0.5
100
AcDbCircle
 10
-7.654710264236798
 20
1.40000000000009
 30
0.0
 40
1.0
100
AcDbArc
 50
90.0
 51
106.5332907094738
  0
LINE
  5
2A9
330
249
100
AcDbEntity
  8
Object
 48
0.5
100
AcDbLine
 10
-8.065418224708309
 20
9.403029407960957
 30
0.0
 11
-11.03400428818474
 21
7.199999999999817
 31
0.0
  0
ARC
  5
2AA
330
249
100
AcDbEntity
  8
Object
 48
0.5
100
AcDbCircle
 10
-7.506179620314042
 20
6.600000000000022
 30
0.0
 40
1.0
100
AcDbArc
 50
90.0
 51
122.7477259423426
  0
ARC
  5
2AB
330
249
100
AcDbEntity
  8
Object
 48
0.5
100
AcDbCircle
 10
-7.469478823468903
 20
7.399999999999977
 30
0.0
 40
1.0
100
AcDbArc
 50
90.0
 51
126.5796288927983
  0
ARC
  5
2AC
330
249
100
AcDbEntity
  8
Object
 48
0.5
100
AcDbCircle
 10
-7.38887896474162
 20
10.60000000000002
 30
0.0
 40
1.0
100
AcDbArc
 50
90.0
 51
134.6971894995252
  0
ARC
  5
2AD
330
249
100
AcDbEntity
  8
Object
 48
0.5
100
AcDbCircle
 10
-7.38887896474162
 20
9.400000000000089
 30
0.0
 40
1.0
100
AcDbArc
 50
90.0
 51
134.6971894995252
  0
ARC
  5
2AE
330
249
100
AcDbEntity
  8
Object
 48
0.5
100
AcDbCircle
 10
-7.469478823468903
 20
8.600000000000022
 30
0.0
 40
1.0
100
AcDbArc
 50
90.0
 51
126.5796288927983
  0
LINE
  5
2AF
330
249
100
AcDbEntity
  8
Object
 48
0.5
100
AcDbLine
 10
-5.800000000000068
 20
-13.0
 30
0.0
 11
-5.800000000000068
 21
13.0
 31
0.0
  0
LINE
  5
2B0
330
249
100
AcDbEntity
  8
Object
 48
0.5
100
AcDbLine
 10
-5.300000000000068
 20
-13.0
 30
0.0
 11
-5.300000000000068
 21
13.0
 31
0.0
  0
LINE
  5
2B1
330
249
100
AcDbEntity
  8
Object
 48
0.5
100
AcDbLine
 10
-1.200000000000044
 20
-12.45000000000003
 30
0.0
 11
-1.200000000000044
 21
12.45000000000003
 31
0.0
  0
LINE
  5
2B2
330
249
100
AcDbEntity
  8
Object
 48
0.5
100
AcDbLine
 10
0.0
 20
-12.45000000000003
 30
0.0
 11
0.0
 21
12.45000000000003
 31
0.0
  0
LINE
  5
2B3
330
249
100
AcDbEntity
  8
Object
 48
0.5
100
AcDbLine
 10
-1.700000000000045
 20
-12.45000000000003
 30
0.0
 11
-1.700000000000045
 21
12.45000000000003
 31
0.0
  0
LINE
  5
2B4
330
249
100
AcDbEntity
  8
Object
 48
0.5
100
AcDbLine
 10
-5.300000000000068
 20
-12.44999999999993
 30
0.0
 11
0.0
 21
-12.44999999999993
 31
0.0
  0
LINE
  5
2B5
330
249
100
AcDbEntity
  8
Object
 48
0.5
100
AcDbLine
 10
-5.800000000000068
 20
-13.0
 30
0.0
 11
-5.300000000000068
 21
-13.0
 31
0.0
  0
LINE
  5
2B6
330
249
100
AcDbEntity
  8
Object
 48
0.5
100
AcDbLine
 10
-5.300000000000068
 20
12.45000000000003
 30
0.0
 11
0.0
 21
12.45000000000003
 31
0.0
  0
LINE
  5
2B7
330
249
100
AcDbEntity
  8
Object
 48
0.5
100
AcDbLine
 10
-5.800000000000068
 20
13.0
 30
0.0
 11
-5.300000000000068
 21
13.0
 31
0.0
  0
ENDBLK
  5
2B9
330
249
100
AcDbEntity
  8
0
 48
0.5
100
AcDbBlockEnd
  0
BLOCK
  5
6CE
330
6A2
100
AcDbEntity
  8
0
 48
0.5
100
AcDbBlockBegin
  2
普通公差（B0405-1991）
 70
     0
 10
0.0
 20
0.0
 30
0.0
  3
普通公差（B0405-1991）
  1

  0
LINE
  5
6A3
330
6A2
100
AcDbEntity
  8
Object
100
AcDbLine
 10
92.06665172228928
 20
9.055677376144672
 30
0.0
 11
92.06665172228923
 21
44.05567737614467
 31
0.0
  0
LINE
  5
6A4
330
6A2
100
AcDbEntity
  8
Object
100
AcDbLine
 10
112.0666517222892
 20
9.055677376144672
 30
0.0
 11
112.0666517222892
 21
44.05567737614467
 31
0.0
  0
LINE
  5
6A5
330
6A2
100
AcDbEntity
  8
Object
100
AcDbLine
 10
132.0666517222894
 20
9.055677376144672
 30
0.0
 11
132.0666517222892
 21
44.05567737614464
 31
0.0
  0
LINE
  5
6A6
330
6A2
100
AcDbEntity
  8
Object
100
AcDbLine
 10
72.06665172228929
 20
9.055677376144672
 30
0.0
 11
72.06665172228929
 21
44.05567737614467
 31
0.0
  0
LINE
  5
6A7
330
6A2
100
AcDbEntity
  8
Object
100
AcDbLine
 10
52.06665172228928
 20
9.055677376144672
 30
0.0
 11
52.06665172228923
 21
44.05567737614467
 31
0.0
  0
LINE
  5
6A8
330
6A2
100
AcDbEntity
  8
Object
100
AcDbLine
 10
32.06665172228929
 20
9.055677376144672
 30
0.0
 11
32.06665172228923
 21
44.05567737614467
 31
0.0
  0
LINE
  5
6A9
330
6A2
100
AcDbEntity
  8
Object
100
AcDbLine
 10
12.06665172228928
 20
9.055677376144672
 30
0.0
 11
12.06665172228928
 21
44.05567737614467
 31
0.0
  0
TEXT
  5
6AA
330
6A2
100
AcDbEntity
  8
Object
100
AcDbText
 10
73.19966519968601
 20
10.98641216884493
 30
0.0
 40
3.0
  1
±1
  7
Roman
100
AcDbText
  0
LINE
  5
6AB
330
6A2
100
AcDbEntity
  8
Object
100
AcDbLine
 10
12.06665172228928
 20
16.05567737614467
 30
0.0
 11
132.0666517222892
 21
16.05567737614467
 31
0.0
  0
LINE
  5
6AC
330
6A2
100
AcDbEntity
  8
Object
100
AcDbLine
 10
12.06665172228928
 20
9.055677376144672
 30
0.0
 11
132.0666517222892
 21
9.055677376144672
 31
0.0
  0
LINE
  5
6AD
330
6A2
100
AcDbEntity
  8
Object
100
AcDbLine
 10
12.06665172228928
 20
23.05567737614467
 30
0.0
 11
132.0666517222892
 21
23.05567737614467
 31
0.0
  0
LINE
  5
6AE
330
6A2
100
AcDbEntity
  8
Object
100
AcDbLine
 10
12.06665172228928
 20
30.05567737614467
 30
0.0
 11
132.0666517222892
 21
30.05567737614464
 31
0.0
  0
LINE
  5
6AF
330
6A2
100
AcDbEntity
  8
Object
100
AcDbLine
 10
12.06665172228928
 20
37.05567737614467
 30
0.0
 11
132.0666517222892
 21
37.05567737614471
 31
0.0
  0
TEXT
  5
6B0
330
6A2
100
AcDbEntity
  8
Object
100
AcDbText
 10
73.19966519968601
 20
17.98641216884492
 30
0.0
 40
3.0
  1
±0.5
  7
Roman
100
AcDbText
  0
TEXT
  5
6B1
330
6A2
100
AcDbEntity
  8
Object
100
AcDbText
 10
73.19966519968601
 20
24.98641216884493
 30
0.0
 40
3.0
  1
±0.2
  7
Roman
100
AcDbText
  0
TEXT
  5
6B2
330
6A2
100
AcDbEntity
  8
Object
100
AcDbText
 10
73.19966519968601
 20
31.98641216884492
 30
0.0
 40
3.0
  1
±0.1
  7
Roman
100
AcDbText
  0
TEXT
  5
6B3
330
6A2
100
AcDbEntity
  8
Object
100
AcDbText
 10
33.19966519968602
 20
31.98641216884492
 30
0.0
 40
3.0
  1
±0.05
  7
Roman
100
AcDbText
  0
TEXT
  5
6B4
330
6A2
100
AcDbEntity
  8
Object
100
AcDbText
 10
20.29988005462199
 20
10.21334071107855
 30
0.0
 40
4.0
  1
v
  7
Roman
100
AcDbText
  0
TEXT
  5
6B5
330
6A2
100
AcDbEntity
  8
Object
100
AcDbText
 10
40.28619619085064
 20
10.63102341590717
 30
0.0
 40
3.0
  1
－
  7
Roman
100
AcDbText
  0
TEXT
  5
6B6
330
6A2
100
AcDbEntity
  8
Object
100
AcDbText
 10
18.95267618011051
 20
24.21334071107855
 30
0.0
 40
4.0
  1
m
  7
Roman
100
AcDbText
  0
TEXT
  5
6B7
330
6A2
100
AcDbEntity
  8
Object
100
AcDbText
 10
19.92565574987929
 20
17.21334071107856
 30
0.0
 40
4.0
  1
c
  7
Roman
100
AcDbText
  0
TEXT
  5
6B8
330
6A2
100
AcDbEntity
  8
Object
100
AcDbText
 10
20.52441327900669
 20
31.21334071107856
 30
0.0
 40
4.0
  1
f
  7
Roman
100
AcDbText
  0
TEXT
  5
6B9
330
6A2
100
AcDbEntity
  8
Object
100
AcDbText
 10
33.19966519968602
 20
24.98641216884493
 30
0.0
 40
3.0
  1
±0.1
  7
Roman
100
AcDbText
  0
TEXT
  5
6BA
330
6A2
100
AcDbEntity
  8
Object
100
AcDbText
 10
33.19966519968602
 20
17.98641216884492
 30
0.0
 40
3.0
  1
±0.2
  7
Roman
100
AcDbText
  0
TEXT
  5
6BB
330
6A2
100
AcDbEntity
  8
Object
100
AcDbText
 10
53.19966519968602
 20
10.98641216884493
 30
0.0
 40
3.0
  1
±0.5
  7
Roman
100
AcDbText
  0
TEXT
  5
6BC
330
6A2
100
AcDbEntity
  8
Object
100
AcDbText
 10
53.19966519968602
 20
24.98641216884493
 30
0.0
 40
3.0
  1
±0.1
  7
Roman
100
AcDbText
  0
TEXT
  5
6BD
330
6A2
100
AcDbEntity
  8
Object
100
AcDbText
 10
53.19966519968602
 20
31.98641216884492
 30
0.0
 40
3.0
  1
±0.05
  7
Roman
100
AcDbText
  0
TEXT
  5
6BE
330
6A2
100
AcDbEntity
  8
Object
100
AcDbText
 10
53.19966519968602
 20
17.98641216884492
 30
0.0
 40
3.0
  1
±0.3
  7
Roman
100
AcDbText
  0
TEXT
  5
6BF
330
6A2
100
AcDbEntity
  8
Object
100
AcDbText
 10
93.199665199686
 20
10.98641216884493
 30
0.0
 40
3.0
  1
±1.5
  7
Roman
100
AcDbText
  0
TEXT
  5
6C0
330
6A2
100
AcDbEntity
  8
Object
100
AcDbText
 10
93.199665199686
 20
24.98641216884493
 30
0.0
 40
3.0
  1
±0.3
  7
Roman
100
AcDbText
  0
TEXT
  5
6C1
330
6A2
100
AcDbEntity
  8
Object
100
AcDbText
 10
93.199665199686
 20
17.98641216884492
 30
0.0
 40
3.0
  1
±0.8
  7
Roman
100
AcDbText
  0
TEXT
  5
6C2
330
6A2
100
AcDbEntity
  8
Object
100
AcDbText
 10
93.199665199686
 20
31.98641216884492
 30
0.0
 40
3.0
  1
±0.15
  7
Roman
100
AcDbText
  0
TEXT
  5
6C3
330
6A2
100
AcDbEntity
  8
Object
100
AcDbText
 10
113.1996651996858
 20
10.98641216884493
 30
0.0
 40
3.0
  1
±2.5
  7
Roman
100
AcDbText
  0
TEXT
  5
6C4
330
6A2
100
AcDbEntity
  8
Object
100
AcDbText
 10
113.199665199686
 20
24.98641216884493
 30
0.0
 40
3.0
  1
±0.5
  7
Roman
100
AcDbText
  0
TEXT
  5
6C5
330
6A2
100
AcDbEntity
  8
Object
100
AcDbText
 10
113.1996651996858
 20
17.98641216884492
 30
0.0
 40
3.0
  1
±1.2
  7
Roman
100
AcDbText
  0
TEXT
  5
6C6
330
6A2
100
AcDbEntity
  8
Object
100
AcDbText
 10
113.199665199686
 20
31.98641216884492
 30
0.0
 40
3.0
  1
±0.2
  7
Roman
100
AcDbText
  0
LINE
  5
6C7
330
6A2
100
AcDbEntity
  8
Object
100
AcDbLine
 10
12.06665172228928
 20
44.05567737614467
 30
0.0
 11
132.0666517222892
 21
44.05567737614467
 31
0.0
  0
TEXT
  5
6C8
330
6A2
100
AcDbEntity
  8
Object
100
AcDbText
 10
75.51641641743255
 20
39.20558974789378
 30
0.0
 40
3.0
  1
6～30
  7
Roman
100
AcDbText
  0
TEXT
  5
6C9
330
6A2
100
AcDbEntity
  8
Object
100
AcDbText
 10
34.69873944784263
 20
39.20558974789378
 30
0.0
 40
3.0
  1
0.5～3
  7
Roman
100
AcDbText
  0
TEXT
  5
6CA
330
6A2
100
AcDbEntity
  8
Object
100
AcDbText
 10
15.2438570353861
 20
39.20558974789378
 30
0.0
 40
3.0
  1
公差等級
  7
Roman
100
AcDbText
  0
TEXT
  5
6CB
330
6A2
100
AcDbEntity
  8
Object
100
AcDbText
 10
56.74293010699376
 20
39.20558974789378
 30
0.0
 40
3.0
  1
3～6
  7
Roman
100
AcDbText
  0
TEXT
  5
6CC
330
6A2
100
AcDbEntity
  8
Object
100
AcDbText
 10
92.79082730316575
 20
39.20558974789378
 30
0.0
 40
3.0
  1
30～120
  7
Roman
100
AcDbText
  0
TEXT
  5
6CD
330
6A2
100
AcDbEntity
  8
Object
100
AcDbText
 10
111.428032746032
 20
39.20558974789378
 30
0.0
 40
3.0
  1
120～400
  7
Roman
100
AcDbText
  0
ENDBLK
  5
6CF
330
6A2
100
AcDbEntity
  8
0
 48
0.5
100
AcDbBlockEnd
  0
BLOCK
  5
70A
330
700
100
AcDbEntity
  8
0
 48
0.5
100
AcDbBlockBegin
  2
*D24
 70
     1
 10
0.0
 20
0.0
 30
0.0
  3
*D24
  1

  0
LINE
  5
70C
330
700
100
AcDbEntity
  8
Dims
 62
     0
 48
0.5
370
    -2
100
AcDbLine
 10
366.7184860159806
 20
-710.9861732873317
 30
0.0
 11
366.7184860159806
 21
-753.4096261691782
 31
0.0
  0
LINE
  5
70D
330
700
100
AcDbEntity
  8
Dims
 62
     0
 48
0.5
370
    -2
100
AcDbLine
 10
281.7684860159793
 20
-710.9861732873317
 30
0.0
 11
281.7684860159793
 21
-753.4096261691782
 31
0.0
  0
LINE
  5
70E
330
700
100
AcDbEntity
  8
Dims
 62
     0
 48
0.5
370
    -2
100
AcDbLine
 10
364.2184860159805
 20
-752.1596261691783
 30
0.0
 11
284.2684860159792
 21
-752.1596261691783
 31
0.0
  0
SOLID
  5
70F
330
700
100
AcDbEntity
  8
Dims
 62
     0
 48
0.5
100
AcDbTrace
 10
364.2184860159805
 20
-751.7429595025117
 30
0.0
 11
364.2184860159805
 21
-752.576292835845
 31
0.0
 12
366.7184860159806
 22
-752.1596261691783
 32
0.0
 13
366.7184860159806
 23
-752.1596261691783
 33
0.0
  0
SOLID
  5
710
330
700
100
AcDbEntity
  8
Dims
 62
     0
 48
0.5
100
AcDbTrace
 10
284.2684860159792
 20
-751.7429595025117
 30
0.0
 11
284.2684860159792
 21
-752.576292835845
 31
0.0
 12
281.7684860159793
 22
-752.1596261691783
 32
0.0
 13
281.7684860159793
 23
-752.1596261691783
 33
0.0
  0
MTEXT
  5
711
330
700
100
AcDbEntity
  8
Dims
 62
     0
 48
0.5
100
AcDbMText
 10
324.24348601598
 20
-750.2846261691782
 30
0.0
 40
2.5
 41
0.0
 71
     5
 72
     1
  1
\A1;L
 73
     1
 44
1.0
  0
POINT
  5
712
330
700
100
AcDbEntity
  8
Defpoints
 62
     0
 48
0.5
100
AcDbPoint
 10
366.7184860159806
 20
-710.3611732873316
 30
0.0
  0
POINT
  5
713
330
700
100
AcDbEntity
  8
Defpoints
 62
     0
 48
0.5
100
AcDbPoint
 10
281.7684860159793
 20
-710.3611732873316
 30
0.0
  0
POINT
  5
714
330
700
100
AcDbEntity
  8
Defpoints
 62
     0
 48
0.5
100
AcDbPoint
 10
281.7684860159793
 20
-752.1596261691783
 30
0.0
  0
ENDBLK
  5
70B
330
700
100
AcDbEntity
  8
0
 48
0.5
100
AcDbBlockEnd
  0
BLOCK
  5
749
330
73F
100
AcDbEntity
  8
0
 48
0.5
100
AcDbBlockBegin
  2
*D25
 70
     1
 10
0.0
 20
0.0
 30
0.0
  3
*D25
  1

  0
LINE
  5
74B
330
73F
100
AcDbEntity
  8
Dims
 62
     0
 48
0.5
370
    -2
100
AcDbLine
 10
266.7684860159801
 20
-681.3628221007892
 30
0.0
 11
266.7684860159801
 21
-677.2503729166251
 31
0.0
  0
LINE
  5
74C
330
73F
100
AcDbEntity
  8
Dims
 62
     0
 48
0.5
370
    -2
100
AcDbLine
 10
276.7684860159798
 20
-680.8628221007892
 30
0.0
 11
276.7684860159798
 21
-677.2503729166251
 31
0.0
  0
LINE
  5
74D
330
73F
100
AcDbEntity
  8
Dims
 62
     0
 48
0.5
370
    -2
100
AcDbLine
 10
269.2684860159801
 20
-677.875372916625
 30
0.0
 11
274.2684860159798
 21
-677.875372916625
 31
0.0
  0
SOLID
  5
74E
330
73F
100
AcDbEntity
  8
Dims
 62
     0
 48
0.5
100
AcDbTrace
 10
269.2684860159801
 20
-677.4587062499583
 30
0.0
 11
269.2684860159801
 21
-678.2920395832917
 31
0.0
 12
266.7684860159801
 22
-677.875372916625
 32
0.0
 13
266.7684860159801
 23
-677.875372916625
 33
0.0
  0
SOLID
  5
74F
330
73F
100
AcDbEntity
  8
Dims
 62
     0
 48
0.5
100
AcDbTrace
 10
274.2684860159798
 20
-677.4587062499583
 30
0.0
 11
274.2684860159798
 21
-678.2920395832917
 31
0.0
 12
276.7684860159798
 22
-677.875372916625
 32
0.0
 13
276.7684860159798
 23
-677.875372916625
 33
0.0
  0
MTEXT
  5
750
330
73F
100
AcDbEntity
  8
Dims
 62
     0
 48
0.5
100
AcDbMText
 10
269.2205667306572
 20
-676.0003729166251
 30
0.0
 40
2.5
 41
0.0
 71
     5
 72
     1
  1
\A1;10
 73
     1
 44
1.0
  0
POINT
  5
751
330
73F
100
AcDbEntity
  8
Defpoints
 62
     0
 48
0.5
100
AcDbPoint
 10
266.7684860159801
 20
-681.9878221007892
 30
0.0
  0
POINT
  5
752
330
73F
100
AcDbEntity
  8
Defpoints
 62
     0
 48
0.5
100
AcDbPoint
 10
276.7684860159798
 20
-681.4878221007892
 30
0.0
  0
POINT
  5
753
330
73F
100
AcDbEntity
  8
Defpoints
 62
     0
 48
0.5
100
AcDbPoint
 10
276.7684860159798
 20
-677.875372916625
 30
0.0
  0
ENDBLK
  5
74A
330
73F
100
AcDbEntity
  8
0
 48
0.5
100
AcDbBlockEnd
  0
ENDSEC
  0
SECTION
  2
ENTITIES
  0
LINE
  5
27
330
2
100
AcDbEntity
  8
画層1
  6
CENTER2
 62
     1
 48
0.5
370
    25
100
AcDbLine
 10
281.7684860159793
 20
-718.4611732873332
 30
0.0
 11
326.7684860159793
 21
-718.4611732873332
 31
0.0
  0
LINE
  5
2A
330
2
100
AcDbEntity
  8
画層1
  6
CENTER2
 62
     1
 48
0.5
370
    25
100
AcDbLine
 10
281.7684860159793
 20
-695.461173287333
 30
0.0
 11
326.7684860159793
 21
-695.461173287333
 31
0.0
  0
LINE
  5
2B
330
2
100
AcDbEntity
  8
Object
 48
0.5
370
    30
100
AcDbLine
 10
281.7684860159793
 20
-692.9611732873332
 30
0.0
 11
329.2684860159793
 21
-692.9611732873332
 31
0.0
  0
LINE
  5
2D
330
2
100
AcDbEntity
  8
Object
 48
0.5
370
    30
100
AcDbLine
 10
281.7684860159793
 20
-720.961173287333
 30
0.0
 11
326.7684860159793
 21
-720.961173287333
 31
0.0
  0
LINE
  5
41
330
2
100
AcDbEntity
  8
Object
 48
0.5
100
AcDbLine
 10
289.7684860159791
 20
-717.1611732873332
 30
0.0
 11
318.2684860159793
 21
-717.1611732873332
 31
0.0
  0
LINE
  5
42
330
2
100
AcDbEntity
  8
Object
 48
0.5
100
AcDbLine
 10
289.7684860159791
 20
-719.7611732873332
 30
0.0
 11
318.2684860159793
 21
-719.7611732873331
 31
0.0
  0
LINE
  5
43
330
2
100
AcDbEntity
  8
Object
 48
0.5
100
AcDbLine
 10
289.7684860159793
 20
-696.7611732873331
 30
0.0
 11
318.2684860159793
 21
-696.7611732873332
 31
0.0
  0
LINE
  5
44
330
2
100
AcDbEntity
  8
Object
 48
0.5
100
AcDbLine
 10
289.7684860159793
 20
-694.1611732873332
 30
0.0
 11
318.2684860159793
 21
-694.1611732873332
 31
0.0
  0
LEADER
  5
49
330
2
100
AcDbEntity
  8
Dims
 48
0.5
100
AcDbLeader
  3
STANDARD
 73
     0
 40
6.666666666666666
 41
16.97619047619048
 76
     3
 10
224.8877369854969
 20
-695.4611732873317
 30
0.0
 10
246.8235968516983
 20
-670.8427890398752
 30
0.0
 10
248.0565082051506
 20
-670.8427890398752
 30
0.0
340
4A
213
0.0
223
-1.25
233
0.0
1001
ACAD
1000
DSTYLE
1002
{
1070
    41
1040
2.5
1070
    42
1040
0.625
1070
    43
1040
3.75
1070
    44
1040
1.25
1070
    73
1070
     0
1070
    74
1070
     0
1070
    77
1070
     0
1070
    78
1070
     8
1070
   140
1040
2.5
1070
   141
1040
2.5
1070
   143
1040
0.0394
1070
   147
1040
0.625
1070
   171
1070
     4
1070
   172
1070
     1
1070
   273
1070
     8
1070
   274
1070
     4
1070
   277
1070
     6
1002
}
  0
MTEXT
  5
4A
102
{ACAD_REACTORS
330
49
102
}
330
2
100
AcDbEntity
  8
Dims
 48
0.5
100
AcDbMText
 10
248.6815082051506
 20
-669.5927890398752
 30
0.0
 40
2.5
 41
0.0
 71
     1
 72
     1
  1
4-M2.6\PDep-3MIN
 73
     1
 44
1.0
  0
LINE
  5
4B
330
2
100
AcDbEntity
  8
Object
 48
0.5
100
AcDbLine
 10
227.3877369854963
 20
-675.4611732873322
 30
0.0
 11
226.7877369854961
 21
-675.4611732873322
 31
0.0
  0
ARC
  5
4C
330
2
100
AcDbEntity
  8
Object
 48
0.5
100
AcDbCircle
 10
213.3877369854963
 20
-706.9611732873318
 30
0.0
 40
18.75
100
AcDbArc
 50
41.69754660315986
 51
48.30245339683663
  0
LINE
  5
4D
330
2
100
AcDbEntity
  8
Center
100
AcDbLine
 10
222.387736985497
 20
-695.4611732873317
 30
0.0
 11
227.3877369854969
 21
-695.4611732873317
 31
0.0
  0
ARC
  5
50
330
2
100
AcDbEntity
  8
Object
 48
0.5
100
AcDbCircle
 10
213.3877369854963
 20
-706.9611732873318
 30
0.0
 40
18.75
100
AcDbArc
 50
311.6975466031632
 51
318.3024533968402
  0
LINE
  5
51
330
2
100
AcDbEntity
  8
Center
100
AcDbLine
 10
222.3877369854962
 20
-718.4611732873317
 30
0.0
 11
227.3877369854963
 21
-718.4611732873317
 31
0.0
  0
DIMENSION
  5
52
330
2
100
AcDbEntity
  8
Dims
 48
0.5
100
AcDbDimension
  2
*D12
 10
237.9048547964125
 20
-706.961173287332
 30
0.0
 11
237.9048547964127
 21
-689.1354359042802
 31
0.0
 70
   129
 71
     5
 42
34.60000000000025
  3
STANDARD
100
AcDbAlignedDimension
 13
224.6377369854925
 23
-672.3611732873317
 33
0.0
 14
224.6377369854925
 24
-706.961173287332
 34
0.0
1001
ACAD
1000
DSTYLE
1002
{
1070
    41
1040
2.5
1070
    42
1040
0.625
1070
    43
1040
3.75
1070
    44
1040
1.25
1070
    73
1070
     0
1070
    74
1070
     0
1070
    77
1070
     1
1070
    78
1070
     8
1070
   140
1040
2.5
1070
   141
1040
2.5
1070
   143
1040
0.0394
1070
   147
1040
0.625
1070
   171
1070
     4
1070
   172
1070
     1
1070
   273
1070
     8
1070
   274
1070
     4
1070
   277
1070
     6
1002
}
  0
DIMENSION
  5
5F
330
2
100
AcDbEntity
  8
Dims
 48
0.5
100
AcDbDimension
  2
*D13
 10
242.6675760073384
 20
-706.961173287332
 30
0.0
 11
242.6675760073385
 21
-687.8111732873309
 31
0.0
 70
   129
 71
     5
 42
38.30000000000177
  3
STANDARD
100
AcDbAlignedDimension
 13
226.3877369854959
 23
-668.6611732873302
 33
0.0
 14
226.3877369854959
 24
-706.961173287332
 34
0.0
1001
ACAD
1000
DSTYLE
1002
{
1070
    41
1040
2.5
1070
    42
1040
0.625
1070
    43
1040
3.75
1070
    44
1040
1.25
1070
    73
1070
     0
1070
    74
1070
     0
1070
    77
1070
     1
1070
    78
1070
     8
1070
   140
1040
2.5
1070
   141
1040
2.5
1070
   143
1040
0.0394
1070
   147
1040
0.625
1070
   171
1070
     4
1070
   172
1070
     1
1070
   273
1070
     8
1070
   274
1070
     4
1070
   277
1070
     6
1002
}
  0
DIMENSION
  5
6C
330
2
100
AcDbEntity
  8
Dims
 48
0.5
100
AcDbDimension
  2
*D15
 10
237.9051665838145
 20
-720.9611732873303
 30
0.0
 11
236.0301665838147
 21
-713.9611732873311
 31
0.0
 70
     1
 71
     5
 42
13.99999999999852
  3
STANDARD
100
AcDbAlignedDimension
 13
213.3877369854963
 23
-706.9611732873318
 33
0.0
 14
213.3877369854963
 24
-720.9611732873303
 34
0.0
1001
ACAD
1000
DSTYLE
1002
{
1070
    41
1040
2.5
1070
    42
1040
0.625
1070
    43
1040
3.75
1070
    44
1040
1.25
1070
    73
1070
     0
1070
    74
1070
     0
1070
    77
1070
     1
1070
    78
1070
     8
1070
   140
1040
2.5
1070
   141
1040
2.5
1070
   143
1040
0.0394
1070
   147
1040
0.625
1070
   171
1070
     4
1070
   172
1070
     1
1070
   273
1070
     8
1070
   274
1070
     4
1070
   277
1070
     6
1002
}
  0
LINE
  5
79
330
2
100
AcDbEntity
  8
Object
 48
0.5
100
AcDbLine
 10
227.3877369854961
 20
-720.3611732873318
 30
0.0
 11
199.3877369854961
 21
-720.3611732873318
 31
0.0
  0
LINE
  5
7A
330
2
100
AcDbEntity
  8
Object
100
AcDbLine
 10
199.3877369854961
 20
-720.9611732873318
 30
0.0
 11
227.3877369854961
 21
-720.9611732873318
 31
0.0
  0
LINE
  5
7B
330
2
100
AcDbEntity
  8
画層1
  6
CENTER2
 62
     1
 48
0.5
370
    25
100
AcDbLine
 10
199.3877369854961
 20
-706.9611732873318
 30
0.0
 11
227.3877369854963
 21
-706.9611732873318
 31
0.0
  0
LINE
  5
7C
330
2
100
AcDbEntity
  8
画層1
  6
CENTER2
 62
     1
 48
0.5
370
    25
100
AcDbLine
 10
199.3877369854961
 20
-706.9611732873318
 30
0.0
 11
227.3877369854963
 21
-706.9611732873318
 31
0.0
  0
LINE
  5
7D
330
2
100
AcDbEntity
  8
Center
 48
0.5
100
AcDbLine
 10
199.3877369854961
 20
-706.9611732873318
 30
0.0
 11
227.3877369854963
 21
-706.9611732873318
 31
0.0
  0
DIMENSION
  5
7E
330
2
100
AcDbEntity
  8
Dims
100
AcDbDimension
  2
*D8
 10
227.3877369854959
 20
-737.238226013191
 30
0.0
 11
210.6460598679299
 21
-737.238226013191
 31
0.0
 70
   128
 71
     5
 42
27.99999999999988
  3
STANDARD
100
AcDbAlignedDimension
 13
199.3877369854959
 23
-720.9611732873317
 33
0.0
 14
227.3877369854959
 24
-720.9611732873317
 34
0.0
100
AcDbRotatedDimension
1001
ACAD
1000
DSTYLE
1002
{
1070
    41
1040
2.5
1070
    42
1040
0.625
1070
    43
1040
3.75
1070
    44
1040
0.625
1070
    73
1070
     0
1070
    74
1070
     0
1070
    77
1070
     1
1070
    78
1070
     8
1070
   140
1040
2.5
1070
   141
1040
2.5
1070
   143
1040
0.0394
1070
   147
1040
0.625
1070
   171
1070
     4
1070
   172
1070
     1
1070
   273
1070
     8
1070
   274
1070
     4
1002
}
  0
DIMENSION
  5
8B
330
2
100
AcDbEntity
  8
Dims
 48
0.5
100
AcDbDimension
  2
*D16
 10
234.9877369854951
 20
-655.6540878188708
 30
0.0
 11
213.387736985496
 21
-653.7790878188708
 31
0.0
 70
     1
  1
（44）
 71
     5
 42
43.19999999999811
  3
STANDARD
100
AcDbAlignedDimension
 13
191.7877369854971
 23
-674.8611732873333
 33
0.0
 14
234.9877369854951
 24
-674.8611732873333
 34
0.0
1001
ACAD
1000
DSTYLE
1002
{
1070
    41
1040
2.5
1070
    42
1040
0.625
1070
    43
1040
3.75
1070
    44
1040
1.25
1070
    73
1070
     0
1070
    74
1070
     0
1070
    77
1070
     1
1070
    78
1070
     8
1070
   140
1040
2.5
1070
   141
1040
2.5
1070
   143
1040
0.0394
1070
   147
1040
0.625
1070
   171
1070
     4
1070
   172
1070
     1
1070
   273
1070
     8
1070
   274
1070
     4
1070
   277
1070
     6
1002
}
  0
LWPOLYLINE
  5
98
330
2
100
AcDbEntity
  8
Object
100
AcDbPolyline
 90
        4
 70
     1
 43
0.0
 10
194.0877369854961
 20
-720.9611732873317
 10
232.6877369854961
 20
-720.9611732873317
 10
232.6877369854961
 20
-669.8611732873318
 10
194.0877369854961
 20
-669.8611732873318
  0
LINE
  5
99
330
2
100
AcDbEntity
  8
Object
100
AcDbLine
 10
195.0877369854957
 20
-720.9611732873303
 30
0.0
 11
231.6877369854959
 21
-720.9611732873303
 31
0.0
  0
LINE
  5
9A
330
2
100
AcDbEntity
  8
Object
100
AcDbLine
 10
195.0877369854959
 20
-669.8611732873306
 30
0.0
 11
231.6877369854954
 21
-669.8611732873303
 31
0.0
  0
DIMENSION
  5
9B
330
2
100
AcDbEntity
  8
Dims
100
AcDbDimension
  2
*D7
 10
232.6877369854964
 20
-660.0946968287852
 30
0.0
 11
213.3877369854963
 21
-658.2196968287852
 31
0.0
 71
     5
 42
38.60000000000035
  3
STANDARD
100
AcDbAlignedDimension
 13
194.0877369854961
 23
-670.6611732873319
 33
0.0
 14
232.6877369854964
 24
-670.6611732873319
 34
0.0
100
AcDbRotatedDimension
1001
ACAD
1000
DSTYLE
1002
{
1070
    41
1040
2.5
1070
    42
1040
0.625
1070
    43
1040
3.75
1070
    44
1040
0.625
1070
    73
1070
     0
1070
    74
1070
     0
1070
    77
1070
     1
1070
    78
1070
     8
1070
   140
1040
2.5
1070
   141
1040
2.5
1070
   143
1040
0.0394
1070
   147
1040
0.625
1070
   171
1070
     4
1070
   172
1070
     1
1070
   273
1070
     8
1070
   274
1070
     4
1002
}
  0
TEXT
  5
AB
330
2
100
AcDbEntity
  8
Dims
100
AcDbText
 10
184.185636755785
 20
-707.0191062663076
 30
0.0
 40
2.0
  1
%%p0.3
 50
90.0
100
AcDbText
  0
DIMENSION
  5
AF
330
2
100
AcDbEntity
  8
Dims
100
AcDbDimension
  2
*D10
 10
185.3853540733291
 20
-692.9611732873325
 30
0.0
 11
185.3853540733292
 21
-710.195934047417
 31
0.0
 70
   128
 71
     5
 42
27.9999999999993
  3
STANDARD
100
AcDbAlignedDimension
 13
198.7877369854959
 23
-720.9611732873317
 33
0.0
 14
198.7877369854943
 24
-692.9611732873325
 34
0.0
 50
270.0
100
AcDbRotatedDimension
1001
ACAD
1000
DSTYLE
1002
{
1070
    41
1040
2.5
1070
    42
1040
0.625
1070
    43
1040
3.75
1070
    44
1040
0.625
1070
    73
1070
     0
1070
    74
1070
     0
1070
    77
1070
     1
1070
    78
1070
     8
1070
   140
1040
2.5
1070
   141
1040
2.5
1070
   143
1040
0.0394
1070
   147
1040
0.625
1070
   171
1070
     4
1070
   172
1070
     1
1070
   273
1070
     8
1070
   274
1070
     4
1002
}
  0
ARC
  5
BC
330
2
100
AcDbEntity
  8
Object
 48
0.5
370
    30
100
AcDbCircle
 10
204.6377369854925
 20
-673.561173287332
 30
0.0
 40
1.0
100
AcDbArc
 50
0.0
 51
90.0
  0
ARC
  5
BD
330
2
100
AcDbEntity
  8
Object
 48
0.5
100
AcDbCircle
 10
205.2875725046888
 20
-673.1040665061456
 30
0.0
 40
0.25
100
AcDbArc
 50
74.68250193381033
 51
180.0
  0
LINE
  5
BE
330
2
100
AcDbEntity
  8
Object
 48
0.5
100
AcDbLine
 10
200.7377369854961
 20
-674.261173287332
 30
0.0
 11
206.0377369854961
 21
-674.261173287332
 31
0.0
  0
LINE
  5
BF
330
2
100
AcDbEntity
  8
Object
 48
0.5
100
AcDbLine
 10
205.3877369854961
 20
-687.152030660266
 30
0.0
 11
204.8877369854961
 21
-686.652030660266
 31
0.0
  0
LINE
  5
C0
330
2
100
AcDbEntity
  8
Object
 48
0.5
100
AcDbLine
 10
204.8877369854961
 20
-688.6520306602659
 30
0.0
 11
205.3877369854961
 21
-688.1520306602659
 31
0.0
  0
LINE
  5
C1
330
2
100
AcDbEntity
  8
Object
 48
0.5
100
AcDbLine
 10
206.0377369854961
 20
-674.8611732873322
 30
0.0
 11
200.7377369854963
 21
-674.8611732873322
 31
0.0
  0
LINE
  5
C2
330
2
100
AcDbEntity
  8
Center
100
AcDbLine
 10
206.8877369854957
 20
-687.652030660265
 30
0.0
 11
201.8877369854958
 21
-687.652030660265
 31
0.0
  0
LINE
  5
C3
330
2
100
AcDbEntity
  8
Center
100
AcDbLine
 10
201.8877369854962
 20
-687.652030660266
 30
0.0
 11
206.8877369854961
 21
-687.652030660266
 31
0.0
  0
CIRCLE
  5
C4
330
2
100
AcDbEntity
  8
Object
 48
0.5
100
AcDbCircle
 10
204.3877369854961
 20
-687.652030660266
 30
0.0
 40
2.799999999999998
  0
CIRCLE
  5
C5
330
2
100
AcDbEntity
  8
Object
 48
0.5
100
AcDbCircle
 10
204.3877369854961
 20
-687.652030660266
 30
0.0
 40
2.649999999999999
  0
CIRCLE
  5
C6
330
2
100
AcDbEntity
  8
Object
 48
0.5
100
AcDbCircle
 10
204.3877369854957
 20
-687.652030660265
 30
0.0
 40
2.5
  0
CIRCLE
  5
C7
330
2
100
AcDbEntity
  8
Object
100
AcDbCircle
 10
213.3877369854963
 20
-706.9611732873316
 30
0.0
 40
9.0
  0
LINE
  5
C8
330
2
100
AcDbEntity
  8
Object
 48
0.5
100
AcDbLine
 10
226.7877369854961
 20
-675.4611732873321
 30
0.0
 11
199.9877369854963
 21
-675.4611732873321
 31
0.0
  0
LINE
  5
C9
330
2
100
AcDbEntity
  8
Object
 48
0.5
100
AcDbLine
 10
226.7877369854961
 20
-674.8611732873322
 30
0.0
 11
199.9877369854963
 21
-674.8611732873322
 31
0.0
  0
LINE
  5
CA
330
2
100
AcDbEntity
  8
Text
 48
2.0
100
AcDbLine
 10
200.8877369854961
 20
-692.9611732873317
 30
0.0
 11
225.8877369854963
 21
-692.9611732873317
 31
0.0
  0
LWPOLYLINE
  5
CC
330
2
100
AcDbEntity
  8
Object
 48
0.5
100
AcDbPolyline
 90
        2
 70
     0
 43
0.0
 10
225.8602066687627
 20
-692.9611732873317
 10
200.9152673022299
 20
-692.9611732873317
  0
LINE
  5
CD
330
2
100
AcDbEntity
  8
Dims
100
AcDbLine
 10
200.3877369854961
 20
-668.6611732873313
 30
0.0
 11
226.3877369854959
 21
-668.6611732873302
 31
0.0
  0
CIRCLE
  5
CE
330
2
100
AcDbEntity
  8
Object
 48
0.5
100
AcDbCircle
 10
213.3877369854963
 20
-706.9611732873318
 30
0.0
 40
11.0
  0
DIMENSION
  5
CF
330
2
100
AcDbEntity
  8
Dims
100
AcDbDimension
  2
*D9
 10
224.8877369854959
 20
-731.3636104014188
 30
0.0
 11
210.6460598679299
 21
-731.3636104014188
 31
0.0
 70
   128
 71
     5
 42
22.99999999999987
  3
STANDARD
100
AcDbAlignedDimension
 13
201.8877369854962
 23
-719.7611732873316
 33
0.0
 14
224.8877369854959
 24
-719.7611732873316
 34
0.0
100
AcDbRotatedDimension
1001
ACAD
1000
DSTYLE
1002
{
1070
    41
1040
2.5
1070
    42
1040
0.625
1070
    43
1040
3.75
1070
    44
1040
0.625
1070
    73
1070
     0
1070
    74
1070
     0
1070
    77
1070
     1
1070
    78
1070
     8
1070
   140
1040
2.5
1070
   141
1040
2.5
1070
   143
1040
0.0394
1070
   147
1040
0.625
1070
   171
1070
     4
1070
   172
1070
     1
1070
   273
1070
     8
1070
   274
1070
     4
1002
}
  0
LINE
  5
DC
330
2
100
AcDbEntity
  8
Object
 48
0.5
100
AcDbLine
 10
200.3877369854963
 20
-693.4496041704602
 30
0.0
 11
200.3877369854963
 21
-675.461173287332
 31
0.0
  0
LINE
  5
DD
330
2
100
AcDbEntity
  8
Object
100
AcDbLine
 10
199.3877369854961
 20
-720.9611732873318
 30
0.0
 11
199.3877369854961
 21
-675.4611732873321
 31
0.0
  0
LINE
  5
DE
330
2
100
AcDbEntity
  8
Object
100
AcDbLine
 10
199.9877369854961
 20
-720.3611732873317
 30
0.0
 11
199.9877369854963
 21
-675.4611732873318
 31
0.0
  0
DIMENSION
  5
DF
330
2
100
AcDbEntity
  8
Dims
100
AcDbDimension
  2
*D11
 10
190.0207315628284
 20
-695.4611732873315
 30
0.0
 11
190.0207315628284
 21
-710.367417527295
 31
0.0
 70
   128
 71
     5
 42
23.0
  3
STANDARD
100
AcDbAlignedDimension
 13
200.5877369854961
 23
-718.4611732873317
 33
0.0
 14
200.5877369854961
 24
-695.4611732873315
 34
0.0
 50
270.0
100
AcDbRotatedDimension
1001
ACAD
1000
DSTYLE
1002
{
1070
    41
1040
2.5
1070
    42
1040
0.625
1070
    43
1040
3.75
1070
    44
1040
0.625
1070
    73
1070
     0
1070
    74
1070
     0
1070
    77
1070
     1
1070
    78
1070
     8
1070
   140
1040
2.5
1070
   141
1040
2.5
1070
   143
1040
0.0394
1070
   147
1040
0.625
1070
   171
1070
     4
1070
   172
1070
     1
1070
   273
1070
     8
1070
   274
1070
     4
1002
}
  0
TEXT
  5
EC
330
2
100
AcDbEntity
  8
Dims
100
AcDbText
 10
188.6098932525984
 20
-707.0036755235038
 30
0.0
 40
2.0
  1
%%p0.2
 50
90.0
100
AcDbText
  0
ARC
  5
ED
330
2
100
AcDbEntity
  8
Object
 48
0.5
100
AcDbCircle
 10
213.3877369854963
 20
-706.9611732873318
 30
0.0
 40
18.75
100
AcDbArc
 50
131.6975466031632
 51
138.30245339684
  0
LINE
  5
EE
330
2
100
AcDbEntity
  8
Center
100
AcDbLine
 10
199.3877369854969
 20
-695.4611732873317
 30
0.0
 11
204.3877369854969
 21
-695.4611732873317
 31
0.0
  0
ARC
  5
EF
330
2
100
AcDbEntity
  8
Object
 48
0.5
100
AcDbCircle
 10
213.3877369854963
 20
-706.9611732873318
 30
0.0
 40
18.75
100
AcDbArc
 50
221.6975466031598
 51
228.3024533968366
  0
LINE
  5
F0
330
2
100
AcDbEntity
  8
Center
100
AcDbLine
 10
199.3877369854961
 20
-718.4611732873317
 30
0.0
 11
204.3877369854963
 21
-718.4611732873317
 31
0.0
  0
LWPOLYLINE
  5
F1
330
2
100
AcDbEntity
  8
Object
 48
0.5
100
AcDbPolyline
 90
        2
 70
     0
 43
0.0
 10
199.3877369854961
 20
-694.4887036040655
 10
199.3877369854961
 20
-719.4336429705985
  0
LWPOLYLINE
  5
F2
330
2
100
AcDbEntity
  8
Object
 48
0.5
100
AcDbPolyline
 90
        2
 70
     0
 43
0.0
 10
199.3877369854961
 20
-694.4887036040654
 10
199.3877369854961
 20
-719.4336429705985
  0
CIRCLE
  5
F3
330
2
100
AcDbEntity
  8
Hidden
 48
0.5
100
AcDbCircle
 10
201.887736985497
 20
-718.4611732873317
 30
0.0
 40
1.3
  0
CIRCLE
  5
F6
330
2
100
AcDbEntity
  8
Object
 48
0.5
100
AcDbCircle
 10
201.8877369854962
 20
-718.4611732873317
 30
0.0
 40
1.0
  0
LINE
  5
F7
330
2
100
AcDbEntity
  8
Hidden
 48
0.5
100
AcDbLine
 10
199.9877369854961
 20
-720.3611732873317
 30
0.0
 11
199.9877369854961
 21
-720.9611732873318
 31
0.0
  0
LINE
  5
F8
330
2
100
AcDbEntity
  8
Center
100
AcDbLine
 10
201.8877369854962
 20
-720.9611732873318
 30
0.0
 11
201.8877369854962
 21
-715.9611732873318
 31
0.0
  0
POINT
  5
F9
330
2
100
AcDbEntity
  8
Object
 48
0.5
100
AcDbPoint
 10
202.6877369854961
 20
-712.6611732873317
 30
0.0
  0
CIRCLE
  5
FA
330
2
100
AcDbEntity
  8
Hidden
 48
0.5
100
AcDbCircle
 10
201.887736985497
 20
-695.4611732873317
 30
0.0
 40
1.3
  0
CIRCLE
  5
FB
330
2
100
AcDbEntity
  8
Object
 48
0.5
100
AcDbCircle
 10
201.8877369854962
 20
-695.4611732873318
 30
0.0
 40
1.0
  0
LINE
  5
FC
330
2
100
AcDbEntity
  8
Center
100
AcDbLine
 10
201.887736985497
 20
-697.9611732873316
 30
0.0
 11
201.887736985497
 21
-692.9611732873317
 31
0.0
  0
LINE
  5
FD
330
2
100
AcDbEntity
  8
Object
 48
0.5
100
AcDbLine
 10
204.8877369854961
 20
-686.652030660266
 30
0.0
 11
204.8877369854961
 21
-685.9749796771414
 31
0.0
  0
LINE
  5
FE
330
2
100
AcDbEntity
  8
Object
 48
0.5
100
AcDbLine
 10
204.8877369854961
 20
-689.329081643391
 30
0.0
 11
204.8877369854961
 21
-688.6520306602659
 31
0.0
  0
LINE
  5
FF
330
2
100
AcDbEntity
  8
Center
100
AcDbLine
 10
204.3877369854957
 20
-690.152030660265
 30
0.0
 11
204.3877369854957
 21
-685.1520306602649
 31
0.0
  0
POINT
  5
100
330
2
100
AcDbEntity
  8
Object
 48
0.5
100
AcDbPoint
 10
204.3877369854963
 20
-687.652030660266
 30
0.0
  0
LINE
  5
101
330
2
100
AcDbEntity
  8
Object
 48
0.5
100
AcDbLine
 10
202.7106860023713
 20
-687.1520306602662
 30
0.0
 11
203.3877369854962
 21
-687.1520306602662
 31
0.0
  0
LINE
  5
102
330
2
100
AcDbEntity
  8
Object
 48
0.5
100
AcDbLine
 10
202.7106860023713
 20
-688.1520306602658
 30
0.0
 11
203.3877369854962
 21
-688.1520306602663
 31
0.0
  0
LINE
  5
103
330
2
100
AcDbEntity
  8
Object
 48
0.5
100
AcDbLine
 10
203.8877369854962
 20
-686.6520306602662
 30
0.0
 11
203.8877369854962
 21
-685.9749796771414
 31
0.0
  0
LINE
  5
104
330
2
100
AcDbEntity
  8
Object
 48
0.5
100
AcDbLine
 10
203.3877369854962
 20
-687.1520306602662
 30
0.0
 11
203.8877369854962
 21
-686.6520306602662
 31
0.0
  0
ARC
  5
105
330
2
100
AcDbEntity
  8
Object
 48
0.5
100
AcDbCircle
 10
204.3877369854961
 20
-687.652030660266
 30
0.0
 40
1.75
100
AcDbArc
 50
163.398450400997
 51
196.6015495990095
  0
POINT
  5
106
330
2
100
AcDbEntity
  8
Object
 48
0.5
100
AcDbPoint
 10
204.3877369854961
 20
-687.652030660266
 30
0.0
  0
LINE
  5
107
330
2
100
AcDbEntity
  8
Object
 48
0.5
100
AcDbLine
 10
203.8877369854962
 20
-689.3290816433911
 30
0.0
 11
203.8877369854962
 21
-688.6520306602663
 31
0.0
  0
LINE
  5
108
330
2
100
AcDbEntity
  8
Center
100
AcDbLine
 10
204.3877369854961
 20
-690.1520306602662
 30
0.0
 11
204.3877369854961
 21
-685.1520306602663
 31
0.0
  0
LINE
  5
109
330
2
100
AcDbEntity
  8
Object
 48
0.5
100
AcDbLine
 10
203.3877369854962
 20
-688.1520306602663
 30
0.0
 11
203.8877369854962
 21
-688.6520306602663
 31
0.0
  0
ARC
  5
10A
330
2
100
AcDbEntity
  8
Object
 48
0.5
100
AcDbCircle
 10
204.3877369854961
 20
-687.652030660266
 30
0.0
 40
1.75
100
AcDbArc
 50
73.39845040097656
 51
106.6015495990233
  0
ARC
  5
10B
330
2
100
AcDbEntity
  8
Object
 48
0.5
100
AcDbCircle
 10
204.3877369854961
 20
-687.652030660266
 30
0.0
 40
1.75
100
AcDbArc
 50
253.3984504009766
 51
286.6015495990233
  0
POINT
  5
10C
330
2
100
AcDbEntity
  8
Object
 48
0.5
100
AcDbPoint
 10
202.6877369854961
 20
-699.6611732873319
 30
0.0
  0
LINE
  5
10D
330
2
100
AcDbEntity
  8
Object
100
AcDbLine
 10
194.0877369854971
 20
-672.2111732873296
 30
0.0
 11
193.487736985497
 21
-672.2111732873296
 31
0.0
  0
ARC
  5
10E
330
2
100
AcDbEntity
  8
Object
 48
0.5
100
AcDbCircle
 10
192.5136429062027
 20
-673.7643027389092
 30
0.0
 40
0.4330127018920962
100
AcDbArc
 50
90.0
 51
270.0
  0
ARC
  5
10F
330
2
100
AcDbEntity
  8
Object
 48
0.5
370
    30
100
AcDbCircle
 10
192.7877369854971
 20
-673.6111732873332
 30
0.0
 40
1.0
100
AcDbArc
 50
109.3103733378499
 51
180.0
  0
LINE
  5
110
330
2
100
AcDbEntity
  8
Object
 48
0.5
100
AcDbLine
 10
192.4570517240776
 20
-672.6674321904852
 30
0.0
 11
193.487736985497
 21
-672.6674321904852
 31
0.0
  0
LINE
  5
111
330
2
100
AcDbEntity
  8
Object
 48
0.5
100
AcDbLine
 10
192.5136429062027
 20
-673.3312900370171
 30
0.0
 11
193.487736985497
 21
-673.3312900370171
 31
0.0
  0
LINE
  5
112
330
2
100
AcDbEntity
  8
Object
 48
0.5
100
AcDbLine
 10
192.5136429062027
 20
-674.1973154408014
 30
0.0
 11
193.487736985497
 21
-674.1973154408013
 31
0.0
  0
LINE
  5
113
330
2
100
AcDbEntity
  8
Object
100
AcDbLine
 10
194.0877369854971
 20
-677.5111732873295
 30
0.0
 11
193.487736985497
 21
-677.5111732873296
 31
0.0
  0
ARC
  5
114
330
2
100
AcDbEntity
  8
Object
 48
0.5
100
AcDbCircle
 10
192.5136429062027
 20
-675.9580438357499
 30
0.0
 40
0.4330127018920962
100
AcDbArc
 50
90.0
 51
270.0
  0
ARC
  5
115
330
2
100
AcDbEntity
  8
Object
 48
0.5
100
AcDbCircle
 10
192.7877369854971
 20
-676.1111732873332
 30
0.0
 40
1.0
100
AcDbArc
 50
180.0
 51
250.6896266608871
  0
LINE
  5
116
330
2
100
AcDbEntity
  8
Object
 48
0.5
100
AcDbLine
 10
192.5136429062027
 20
-676.3910565376419
 30
0.0
 11
193.487736985497
 21
-676.3910565376419
 31
0.0
  0
LINE
  5
117
330
2
100
AcDbEntity
  8
Object
 48
0.5
100
AcDbLine
 10
192.5136429062027
 20
-675.5250311338577
 30
0.0
 11
193.487736985497
 21
-675.525031133858
 31
0.0
  0
LINE
  5
118
330
2
100
AcDbEntity
  8
Object
 48
0.5
100
AcDbLine
 10
192.4570517240776
 20
-677.0549143841739
 30
0.0
 11
193.487736985497
 21
-677.0549143841739
 31
0.0
  0
LINE
  5
119
330
2
100
AcDbEntity
  8
画層1
 62
     0
 48
0.5
370
    30
100
AcDbLine
 10
191.7877369854971
 20
-676.1111732873332
 30
0.0
 11
191.7877369854971
 21
-673.6111732873332
 31
0.0
  0
LINE
  5
11A
330
2
100
AcDbEntity
  8
Object
 48
0.5
100
AcDbLine
 10
193.487736985497
 20
-677.5111732873296
 30
0.0
 11
193.487736985497
 21
-672.2111732873296
 31
0.0
  0
LINE
  5
11B
330
2
100
AcDbEntity
  8
Object
 48
0.5
100
AcDbLine
 10
194.0877369854971
 20
-672.2111732873296
 30
0.0
 11
194.0877369854971
 21
-677.5111732873295
 31
0.0
  0
LINE
  5
11C
330
2
100
AcDbEntity
  8
Object
 48
0.5
100
AcDbLine
 10
199.9877369854961
 20
-675.4611732873321
 30
0.0
 11
199.3877369854961
 21
-675.4611732873321
 31
0.0
  0
POINT
  5
11D
330
2
100
AcDbEntity
  8
Object
 48
0.5
100
AcDbPoint
 10
198.3877369854959
 20
-680.3611732873319
 30
0.0
  0
LINE
  5
11E
330
2
100
AcDbEntity
  8
画層1
 62
     0
 48
0.5
370
    30
100
AcDbLine
 10
202.1377369854925
 20
-672.561173287332
 30
0.0
 11
204.6377369854925
 21
-672.561173287332
 31
0.0
  0
ARC
  5
11F
330
2
100
AcDbEntity
  8
Object
 48
0.5
100
AcDbCircle
 10
202.1377369854925
 20
-673.561173287332
 30
0.0
 40
1.0
100
AcDbArc
 50
90.0
 51
180.0
  0
LINE
  5
120
330
2
100
AcDbEntity
  8
Object
 48
0.5
100
AcDbLine
 10
201.2379014663031
 20
-673.1249439458244
 30
0.0
 11
201.2379014663031
 21
-674.2611732873322
 31
0.0
  0
LINE
  5
121
330
2
100
AcDbEntity
  8
Object
 48
0.5
100
AcDbLine
 10
201.7379014663036
 20
-673.1040665061456
 30
0.0
 11
201.7379014663036
 21
-674.2611732873321
 31
0.0
  0
ARC
  5
122
330
2
100
AcDbEntity
  8
Object
 48
0.5
100
AcDbCircle
 10
201.4879014663033
 20
-673.1040665061456
 30
0.0
 40
0.25
100
AcDbArc
 50
0.0
 51
105.3174980661895
  0
LINE
  5
123
330
2
100
AcDbEntity
  8
Object
 48
0.5
100
AcDbLine
 10
201.1377369854925
 20
-673.561173287332
 30
0.0
 11
201.1377369854925
 21
-674.2611732873317
 31
0.0
  0
LINE
  5
124
330
2
100
AcDbEntity
  8
Dims
100
AcDbLine
 10
200.3877369854961
 20
-668.6611732873314
 30
0.0
 11
200.3877369854961
 21
-669.8611732873319
 31
0.0
  0
LINE
  5
125
330
2
100
AcDbEntity
  8
Object
 48
0.5
100
AcDbLine
 10
199.9877369854963
 20
-675.6611732873318
 30
0.0
 11
199.9877369854963
 21
-674.8611732873322
 31
0.0
  0
LINE
  5
126
330
2
100
AcDbEntity
  8
Object
100
AcDbLine
 10
200.7377369854963
 20
-674.8611732873322
 30
0.0
 11
200.7377369854961
 21
-674.261173287332
 31
0.0
  0
LINE
  5
127
330
2
100
AcDbEntity
  8
Object
 48
0.5
100
AcDbLine
 10
205.0375725046885
 20
-673.1040665061456
 30
0.0
 11
205.0375725046885
 21
-674.2611732873321
 31
0.0
  0
ARC
  5
128
330
2
100
AcDbEntity
  8
Object
 48
0.5
100
AcDbCircle
 10
203.3877369854844
 20
-673.3540665061456
 30
0.0
 40
0.5
100
AcDbArc
 50
0.0
 51
180.0
  0
LINE
  5
129
330
2
100
AcDbEntity
  8
Object
 48
0.5
100
AcDbLine
 10
203.8877369854925
 20
-673.3540665061456
 30
0.0
 11
203.8877369854925
 21
-674.2611732873321
 31
0.0
  0
LINE
  5
12A
330
2
100
AcDbEntity
  8
Object
 48
0.5
100
AcDbLine
 10
202.8877369854925
 20
-673.3540665061456
 30
0.0
 11
202.8877369854925
 21
-674.2611732873321
 31
0.0
  0
LINE
  5
12B
330
2
100
AcDbEntity
  8
Object
 48
0.5
100
AcDbLine
 10
226.3877369854963
 20
-693.4496041704602
 30
0.0
 11
226.3877369854963
 21
-675.461173287332
 31
0.0
  0
LINE
  5
12C
330
2
100
AcDbEntity
  8
Object
100
AcDbLine
 10
226.7877369854958
 20
-720.3611732873317
 30
0.0
 11
226.7877369854961
 21
-675.4611732873318
 31
0.0
  0
LINE
  5
12D
330
2
100
AcDbEntity
  8
Center
100
AcDbLine
 10
213.387736985496
 20
-682.9611732873318
 30
0.0
 11
213.387736985496
 21
-677.9611732873318
 31
0.0
  0
LINE
  5
12E
330
2
100
AcDbEntity
  8
Center
100
AcDbLine
 10
213.387736985496
 20
-682.9611732873318
 30
0.0
 11
213.387736985496
 21
-677.9611732873318
 31
0.0
  0
LINE
  5
12F
330
2
100
AcDbEntity
  8
Center
100
AcDbLine
 10
213.387736985496
 20
-697.3611732873319
 30
0.0
 11
213.3877369854961
 21
-675.2611732873319
 31
0.0
  0
LINE
  5
130
330
2
100
AcDbEntity
  8
Object
 48
0.5
100
AcDbLine
 10
216.8877369854964
 20
-684.6511732873332
 30
0.0
 11
215.8877369854962
 21
-684.6511732873331
 31
0.0
  0
LINE
  5
131
330
2
100
AcDbEntity
  8
Object
 48
0.5
100
AcDbLine
 10
216.8877369854964
 20
-681.991173287332
 30
0.0
 11
209.8877369854966
 21
-681.991173287332
 31
0.0
  0
LWPOLYLINE
  5
132
330
2
100
AcDbEntity
  8
Object
 48
0.5
100
AcDbPolyline
 90
        2
 70
     0
 43
0.0
 10
216.8877369854963
 20
-691.9611732873318
 10
209.8877369854962
 20
-691.9611732873318
  0
TEXT
  5
133
330
2
100
AcDbEntity
  8
Dims
100
AcDbText
 10
213.6619429210005
 20
-730.5702066176884
 30
0.0
 40
2.0
  1
%%p0.2
100
AcDbText
  0
TEXT
  5
134
330
2
100
AcDbEntity
  8
Dims
100
AcDbText
 10
213.646512178197
 20
-736.4677417996026
 30
0.0
 40
2.0
  1
%%p0.3
100
AcDbText
  0
LINE
  5
135
330
2
100
AcDbEntity
  8
Object
 48
0.5
100
AcDbLine
 10
210.887736985496
 20
-684.6511732873331
 30
0.0
 11
209.8877369854966
 21
-684.6511732873332
 31
0.0
  0
ARC
  5
136
330
2
100
AcDbEntity
  8
Object
 48
0.5
100
AcDbCircle
 10
204.3877369854961
 20
-687.652030660266
 30
0.0
 40
1.75
100
AcDbArc
 50
343.3984504009766
 51
16.60154959900954
  0
LINE
  5
137
330
2
100
AcDbEntity
  8
Object
 48
0.5
100
AcDbLine
 10
205.3877369854961
 20
-688.1520306602659
 30
0.0
 11
206.064787968621
 21
-688.152030660266
 31
0.0
  0
LINE
  5
138
330
2
100
AcDbEntity
  8
Object
 48
0.5
100
AcDbLine
 10
205.3877369854961
 20
-687.152030660266
 30
0.0
 11
206.064787968621
 21
-687.1520306602662
 31
0.0
  0
LINE
  5
139
330
2
100
AcDbEntity
  8
Object
100
AcDbLine
 10
209.8877369854962
 20
-692.9611732873317
 30
0.0
 11
209.8877369854962
 21
-691.9611732873318
 31
0.0
  0
LINE
  5
13A
330
2
100
AcDbEntity
  8
Object
100
AcDbLine
 10
210.137736985497
 20
-684.6511732873327
 30
0.0
 11
210.137736985497
 21
-691.9611732873318
 31
0.0
  0
LINE
  5
13B
330
2
100
AcDbEntity
  8
Object
100
AcDbLine
 10
209.8877369854966
 20
-681.991173287332
 30
0.0
 11
209.8877369854966
 21
-692.9611732873317
 31
0.0
  0
LINE
  5
13C
330
2
100
AcDbEntity
  8
Center
 48
0.5
100
AcDbLine
 10
213.3877369854963
 20
-692.9611732873317
 30
0.0
 11
213.3877369854963
 21
-720.9611732873318
 31
0.0
  0
LINE
  5
13D
330
2
100
AcDbEntity
  8
Center
 48
0.5
100
AcDbLine
 10
213.3877369854963
 20
-720.9611732873318
 30
0.0
 11
213.3877369854963
 21
-692.9611732873317
 31
0.0
  0
CIRCLE
  5
13E
330
2
100
AcDbEntity
  8
Object
 48
0.5
100
AcDbCircle
 10
213.3877369854963
 20
-706.9611732873318
 30
0.0
 40
2.0
  0
LINE
  5
13F
330
2
100
AcDbEntity
  8
Object
 48
0.5
100
AcDbLine
 10
214.8877369854964
 20
-704.961173287332
 30
0.0
 11
211.8877369854962
 21
-704.961173287332
 31
0.0
  0
CIRCLE
  5
140
330
2
100
AcDbEntity
  8
Object
 48
0.5
100
AcDbCircle
 10
213.3877369854963
 20
-706.9611732873318
 30
0.0
 40
2.5
  0
LINE
  5
141
330
2
100
AcDbEntity
  8
Center
100
AcDbLine
 10
213.387736985496
 20
-720.9611732873317
 30
0.0
 11
213.3877369854963
 21
-718.6111732873317
 31
0.0
  0
ARC
  5
142
330
2
100
AcDbEntity
  8
Object
 48
0.5
100
AcDbCircle
 10
213.3877369854965
 20
-684.4911732873319
 30
0.0
 40
2.5
100
AcDbArc
 50
0.0
 51
180.0
  0
LINE
  5
143
330
2
100
AcDbEntity
  8
Object
100
AcDbLine
 10
210.8877369854963
 20
-692.9611732873317
 30
0.0
 11
210.8877369854963
 21
-691.9611732873318
 31
0.0
  0
LINE
  5
144
330
2
100
AcDbEntity
  8
Object
100
AcDbLine
 10
210.887736985496
 20
-691.9611732873318
 30
0.0
 11
210.887736985496
 21
-684.4911732873319
 31
0.0
  0
LINE
  5
145
330
2
100
AcDbEntity
  8
Object
100
AcDbLine
 10
215.8877369854963
 20
-692.9611732873317
 30
0.0
 11
215.8877369854963
 21
-691.9611732873318
 31
0.0
  0
LINE
  5
146
330
2
100
AcDbEntity
  8
Object
100
AcDbLine
 10
215.8877369854962
 20
-691.9611732873318
 30
0.0
 11
215.8877369854962
 21
-684.4911732873319
 31
0.0
  0
LINE
  5
147
330
2
100
AcDbEntity
  8
Text
  6
CENTER2
 62
     1
370
    25
100
AcDbLine
 10
213.3877369854957
 20
-693.3611732873316
 30
0.0
 11
213.3877369854957
 21
-690.8611732873317
 31
0.0
  0
LINE
  5
148
330
2
100
AcDbEntity
  8
Object
 48
0.5
100
AcDbLine
 10
221.3877369854963
 20
-687.1520306602662
 30
0.0
 11
221.8877369854963
 21
-686.6520306602662
 31
0.0
  0
LINE
  5
149
330
2
100
AcDbEntity
  8
Object
 48
0.5
100
AcDbLine
 10
221.3877369854963
 20
-688.1520306602663
 30
0.0
 11
221.8877369854963
 21
-688.6520306602663
 31
0.0
  0
LINE
  5
14A
330
2
100
AcDbEntity
  8
Center
100
AcDbLine
 10
224.8877369854958
 20
-687.652030660265
 30
0.0
 11
219.8877369854958
 21
-687.652030660265
 31
0.0
  0
CIRCLE
  5
14B
330
2
100
AcDbEntity
  8
Object
 48
0.5
100
AcDbCircle
 10
222.3877369854958
 20
-687.652030660265
 30
0.0
 40
2.5
  0
LINE
  5
14C
330
2
100
AcDbEntity
  8
Center
100
AcDbLine
 10
219.8877369854963
 20
-687.652030660266
 30
0.0
 11
224.8877369854962
 21
-687.652030660266
 31
0.0
  0
CIRCLE
  5
14D
330
2
100
AcDbEntity
  8
Object
 48
0.5
100
AcDbCircle
 10
222.3877369854962
 20
-687.652030660266
 30
0.0
 40
2.649999999999999
  0
CIRCLE
  5
14E
330
2
100
AcDbEntity
  8
Object
 48
0.5
100
AcDbCircle
 10
222.3877369854962
 20
-687.652030660266
 30
0.0
 40
2.799999999999998
  0
LINE
  5
14F
330
2
100
AcDbEntity
  8
Object
100
AcDbLine
 10
216.8877369854963
 20
-692.9611732873317
 30
0.0
 11
216.8877369854963
 21
-691.9611732873318
 31
0.0
  0
LINE
  5
150
330
2
100
AcDbEntity
  8
Object
100
AcDbLine
 10
216.6377369854969
 20
-684.6511732873327
 30
0.0
 11
216.6377369854969
 21
-691.9611732873318
 31
0.0
  0
LINE
  5
151
330
2
100
AcDbEntity
  8
Object
100
AcDbLine
 10
216.8877369854964
 20
-681.991173287332
 30
0.0
 11
216.8877369854964
 21
-692.9611732873317
 31
0.0
  0
LINE
  5
152
330
2
100
AcDbEntity
  8
Object
 48
0.5
100
AcDbLine
 10
220.7106860023714
 20
-687.1520306602662
 30
0.0
 11
221.3877369854963
 21
-687.1520306602662
 31
0.0
  0
LINE
  5
153
330
2
100
AcDbEntity
  8
Object
 48
0.5
100
AcDbLine
 10
220.7106860023714
 20
-688.1520306602658
 30
0.0
 11
221.3877369854963
 21
-688.1520306602663
 31
0.0
  0
ARC
  5
154
330
2
100
AcDbEntity
  8
Object
 48
0.5
100
AcDbCircle
 10
222.3877369854962
 20
-687.652030660266
 30
0.0
 40
1.75
100
AcDbArc
 50
163.398450400997
 51
196.6015495990095
  0
CIRCLE
  5
155
330
2
100
AcDbEntity
  8
Hidden
 48
0.5
100
AcDbCircle
 10
224.8877369854969
 20
-718.4611732873317
 30
0.0
 40
1.3
  0
CIRCLE
  5
156
330
2
100
AcDbEntity
  8
Object
 48
0.5
100
AcDbCircle
 10
224.8877369854962
 20
-718.4611732873317
 30
0.0
 40
1.0
  0
POINT
  5
157
330
2
100
AcDbEntity
  8
Object
 48
0.5
100
AcDbPoint
 10
224.0877369854963
 20
-712.6611732873317
 30
0.0
  0
LINE
  5
158
330
2
100
AcDbEntity
  8
Hidden
 48
0.5
100
AcDbLine
 10
226.7877369854958
 20
-720.3611732873318
 30
0.0
 11
226.7877369854958
 21
-720.9611732873318
 31
0.0
  0
LINE
  5
159
330
2
100
AcDbEntity
  8
Center
100
AcDbLine
 10
224.8877369854962
 20
-720.9611732873318
 30
0.0
 11
224.8877369854962
 21
-715.9611732873318
 31
0.0
  0
ARC
  5
15A
330
2
100
AcDbEntity
  8
Object
 48
0.5
100
AcDbCircle
 10
222.3877369854962
 20
-687.652030660266
 30
0.0
 40
1.75
100
AcDbArc
 50
343.3984504009766
 51
16.60154959900954
  0
CIRCLE
  5
15B
330
2
100
AcDbEntity
  8
Hidden
 48
0.5
100
AcDbCircle
 10
224.8877369854969
 20
-695.4611732873317
 30
0.0
 40
1.3
  0
CIRCLE
  5
15C
330
2
100
AcDbEntity
  8
Object
 48
0.5
100
AcDbCircle
 10
224.8877369854962
 20
-695.4611732873318
 30
0.0
 40
1.0
  0
LINE
  5
15D
330
2
100
AcDbEntity
  8
Center
100
AcDbLine
 10
222.3877369854958
 20
-690.152030660265
 30
0.0
 11
222.3877369854958
 21
-685.1520306602649
 31
0.0
  0
POINT
  5
15E
330
2
100
AcDbEntity
  8
Object
 48
0.5
100
AcDbPoint
 10
222.3877369854962
 20
-687.652030660266
 30
0.0
  0
LINE
  5
15F
330
2
100
AcDbEntity
  8
Object
 48
0.5
100
AcDbLine
 10
221.8877369854963
 20
-686.6520306602662
 30
0.0
 11
221.8877369854963
 21
-685.9749796771414
 31
0.0
  0
LINE
  5
160
330
2
100
AcDbEntity
  8
Object
 48
0.5
100
AcDbLine
 10
222.8877369854961
 20
-686.652030660266
 30
0.0
 11
222.8877369854961
 21
-685.9749796771414
 31
0.0
  0
LINE
  5
161
330
2
100
AcDbEntity
  8
Object
 48
0.5
100
AcDbLine
 10
223.3877369854963
 20
-687.152030660266
 30
0.0
 11
222.8877369854961
 21
-686.652030660266
 31
0.0
  0
ARC
  5
162
330
2
100
AcDbEntity
  8
Object
 48
0.5
100
AcDbCircle
 10
222.3877369854962
 20
-687.652030660266
 30
0.0
 40
1.75
100
AcDbArc
 50
73.39845040097656
 51
106.6015495990233
  0
POINT
  5
163
330
2
100
AcDbEntity
  8
Object
 48
0.5
100
AcDbPoint
 10
222.3877369854962
 20
-687.652030660266
 30
0.0
  0
LINE
  5
164
330
2
100
AcDbEntity
  8
Object
 48
0.5
100
AcDbLine
 10
221.8877369854963
 20
-689.3290816433911
 30
0.0
 11
221.8877369854963
 21
-688.6520306602663
 31
0.0
  0
LINE
  5
165
330
2
100
AcDbEntity
  8
Object
 48
0.5
100
AcDbLine
 10
222.8877369854961
 20
-689.329081643391
 30
0.0
 11
222.8877369854961
 21
-688.6520306602659
 31
0.0
  0
ARC
  5
166
330
2
100
AcDbEntity
  8
Object
 48
0.5
100
AcDbCircle
 10
222.3877369854962
 20
-687.652030660266
 30
0.0
 40
1.75
100
AcDbArc
 50
253.3984504009766
 51
286.6015495990233
  0
LINE
  5
167
330
2
100
AcDbEntity
  8
Center
100
AcDbLine
 10
222.3877369854962
 20
-690.1520306602662
 30
0.0
 11
222.3877369854962
 21
-685.1520306602663
 31
0.0
  0
LINE
  5
168
330
2
100
AcDbEntity
  8
Object
 48
0.5
100
AcDbLine
 10
222.8877369854961
 20
-688.6520306602659
 30
0.0
 11
223.3877369854963
 21
-688.1520306602659
 31
0.0
  0
LINE
  5
169
330
2
100
AcDbEntity
  8
Object
 48
0.5
100
AcDbLine
 10
223.3877369854963
 20
-688.1520306602659
 30
0.0
 11
224.0647879686211
 21
-688.152030660266
 31
0.0
  0
LINE
  5
16A
330
2
100
AcDbEntity
  8
Object
 48
0.5
100
AcDbLine
 10
223.3877369854963
 20
-687.152030660266
 30
0.0
 11
224.0647879686211
 21
-687.1520306602662
 31
0.0
  0
POINT
  5
16B
330
2
100
AcDbEntity
  8
Object
 48
0.5
100
AcDbPoint
 10
224.0877369854963
 20
-699.6611732873319
 30
0.0
  0
LINE
  5
16C
330
2
100
AcDbEntity
  8
Center
100
AcDbLine
 10
224.8877369854969
 20
-697.9611732873316
 30
0.0
 11
224.8877369854969
 21
-692.9611732873317
 31
0.0
  0
LINE
  5
16D
330
2
100
AcDbEntity
  8
Object
 48
0.5
100
AcDbLine
 10
205.5375725046891
 20
-673.1249439458244
 30
0.0
 11
205.5375725046891
 21
-674.2611732873322
 31
0.0
  0
LINE
  5
16E
330
2
100
AcDbEntity
  8
Object
 48
0.5
100
AcDbLine
 10
205.6377369854925
 20
-673.561173287332
 30
0.0
 11
205.6377369854925
 21
-674.2611732873317
 31
0.0
  0
LINE
  5
16F
330
2
100
AcDbEntity
  8
Object
100
AcDbLine
 10
206.0377369854961
 20
-674.8611732873322
 30
0.0
 11
206.0377369854961
 21
-674.261173287332
 31
0.0
  0
ARC
  5
170
330
2
100
AcDbEntity
  8
Object
 48
0.5
100
AcDbCircle
 10
222.1377369854925
 20
-673.561173287332
 30
0.0
 40
1.0
100
AcDbArc
 50
90.0
 51
180.0
  0
LINE
  5
171
330
2
100
AcDbEntity
  8
Object
 48
0.5
100
AcDbLine
 10
220.7377369854961
 20
-674.261173287332
 30
0.0
 11
226.037736985496
 21
-674.261173287332
 31
0.0
  0
LINE
  5
172
330
2
100
AcDbEntity
  8
Object
 48
0.5
100
AcDbLine
 10
226.037736985496
 20
-674.8611732873322
 30
0.0
 11
220.7377369854963
 21
-674.8611732873322
 31
0.0
  0
LINE
  5
173
330
2
100
AcDbEntity
  8
Object
 48
0.5
100
AcDbLine
 10
221.2379014663031
 20
-673.1249439458244
 30
0.0
 11
221.2379014663031
 21
-674.2611732873322
 31
0.0
  0
LINE
  5
174
330
2
100
AcDbEntity
  8
Object
 48
0.5
100
AcDbLine
 10
221.1377369854925
 20
-673.561173287332
 30
0.0
 11
221.1377369854925
 21
-674.2611732873317
 31
0.0
  0
LINE
  5
175
330
2
100
AcDbEntity
  8
Object
100
AcDbLine
 10
220.7377369854963
 20
-674.8611732873322
 30
0.0
 11
220.7377369854961
 21
-674.261173287332
 31
0.0
  0
LINE
  5
176
330
2
100
AcDbEntity
  8
画層1
 62
     0
 48
0.5
370
    30
100
AcDbLine
 10
222.1377369854925
 20
-672.561173287332
 30
0.0
 11
224.6377369854925
 21
-672.561173287332
 31
0.0
  0
LINE
  5
177
330
2
100
AcDbEntity
  8
Object
 48
0.5
100
AcDbLine
 10
223.8877369854925
 20
-673.3540665061456
 30
0.0
 11
223.8877369854925
 21
-674.2611732873321
 31
0.0
  0
LINE
  5
178
330
2
100
AcDbEntity
  8
Object
 48
0.5
100
AcDbLine
 10
221.7379014663038
 20
-673.1040665061456
 30
0.0
 11
221.7379014663038
 21
-674.2611732873321
 31
0.0
  0
ARC
  5
179
330
2
100
AcDbEntity
  8
Object
 48
0.5
100
AcDbCircle
 10
221.4879014663034
 20
-673.1040665061456
 30
0.0
 40
0.25
100
AcDbArc
 50
0.0
 51
105.3174980661895
  0
LINE
  5
17A
330
2
100
AcDbEntity
  8
Object
 48
0.5
100
AcDbLine
 10
222.8877369854925
 20
-673.3540665061456
 30
0.0
 11
222.8877369854925
 21
-674.2611732873321
 31
0.0
  0
ARC
  5
17B
330
2
100
AcDbEntity
  8
Object
 48
0.5
100
AcDbCircle
 10
223.3877369854845
 20
-673.3540665061456
 30
0.0
 40
0.5
100
AcDbArc
 50
0.0
 51
180.0
  0
ARC
  5
17C
330
2
100
AcDbEntity
  8
Object
 48
0.5
370
    30
100
AcDbCircle
 10
224.6377369854925
 20
-673.561173287332
 30
0.0
 40
1.0
100
AcDbArc
 50
0.0
 51
90.0
  0
ARC
  5
17D
330
2
100
AcDbEntity
  8
Object
 48
0.5
100
AcDbCircle
 10
225.2875725046889
 20
-673.1040665061456
 30
0.0
 40
0.25
100
AcDbArc
 50
74.68250193381033
 51
180.0
  0
LINE
  5
17E
330
2
100
AcDbEntity
  8
Object
 48
0.5
100
AcDbLine
 10
225.5375725046891
 20
-673.1249439458244
 30
0.0
 11
225.5375725046891
 21
-674.2611732873322
 31
0.0
  0
LINE
  5
17F
330
2
100
AcDbEntity
  8
Object
 48
0.5
100
AcDbLine
 10
225.0375725046884
 20
-673.1040665061456
 30
0.0
 11
225.0375725046884
 21
-674.2611732873321
 31
0.0
  0
LINE
  5
180
330
2
100
AcDbEntity
  8
Object
 48
0.5
100
AcDbLine
 10
225.6377369854925
 20
-673.561173287332
 30
0.0
 11
225.6377369854925
 21
-674.2611732873317
 31
0.0
  0
LINE
  5
181
330
2
100
AcDbEntity
  8
Dims
100
AcDbLine
 10
226.3877369854959
 20
-668.6611732873302
 30
0.0
 11
226.3877369854959
 21
-669.8611732873322
 31
0.0
  0
LINE
  5
182
330
2
100
AcDbEntity
  8
Object
 48
0.5
100
AcDbLine
 10
226.7877369854961
 20
-675.6611732873318
 30
0.0
 11
226.7877369854961
 21
-674.8611732873322
 31
0.0
  0
LINE
  5
183
330
2
100
AcDbEntity
  8
Object
100
AcDbLine
 10
226.037736985496
 20
-674.8611732873322
 30
0.0
 11
226.037736985496
 21
-674.261173287332
 31
0.0
  0
POINT
  5
184
330
2
100
AcDbEntity
  8
Object
 48
0.5
100
AcDbPoint
 10
174.8641120842248
 20
-594.1342078095202
 30
0.0
  0
DIMENSION
  5
189
330
2
100
AcDbEntity
  8
Dims
100
AcDbDimension
  2
*D1
 10
276.7684860159798
 20
-700.8487241031702
 30
0.0
 11
269.2205667306572
 21
-700.8487241031702
 31
0.0
 70
   128
 71
     5
 42
9.999999999999657
  3
STANDARD
100
AcDbAlignedDimension
 13
266.7684860159801
 23
-704.9611732873344
 33
0.0
 14
276.7684860159798
 24
-704.4611732873343
 34
0.0
100
AcDbRotatedDimension
1001
ACAD
1000
DSTYLE
1002
{
1070
    41
1040
2.5
1070
    42
1040
0.625
1070
    43
1040
3.75
1070
    44
1040
0.625
1070
    73
1070
     0
1070
    74
1070
     0
1070
    77
1070
     1
1070
    78
1070
     8
1070
   140
1040
2.5
1070
   141
1040
2.5
1070
   143
1040
0.0394
1070
   147
1040
0.625
1070
   171
1070
     4
1070
   172
1070
     1
1070
   273
1070
     8
1070
   274
1070
     4
1002
}
  0
LINE
  5
196
330
2
100
AcDbEntity
  8
Object
 48
2.0
370
    30
100
AcDbLine
 10
266.7684860159793
 20
-704.961173287333
 30
0.0
 11
276.7684860159793
 21
-704.961173287333
 31
0.0
  0
LINE
  5
197
330
2
100
AcDbEntity
  8
Object
 48
2.0
370
    30
100
AcDbLine
 10
267.2684860159793
 20
-709.4611732873332
 30
0.0
 11
280.2684860159791
 21
-709.4611732873332
 31
0.0
  0
DIMENSION
  5
198
330
2
100
AcDbEntity
  8
Dims
100
AcDbDimension
  2
*D5
 10
281.7684860159798
 20
-742.0953258544749
 30
0.0
 11
270.7100656835064
 21
-742.0953258544749
 31
0.0
 70
   128
 71
     5
 42
14.99999999999966
  3
STANDARD
100
AcDbAlignedDimension
 13
266.7684860159801
 23
-708.9611732873347
 33
0.0
 14
281.7684860159798
 24
-720.9611732873347
 34
0.0
100
AcDbRotatedDimension
1001
ACAD
1000
DSTYLE
1002
{
1070
    41
1040
2.5
1070
    42
1040
0.625
1070
    43
1040
3.75
1070
    44
1040
0.625
1070
    73
1070
     0
1070
    74
1070
     0
1070
    77
1070
     1
1070
    78
1070
     8
1070
   140
1040
2.5
1070
   141
1040
2.5
1070
   143
1040
0.0394
1070
   147
1040
0.625
1070
   171
1070
     4
1070
   172
1070
     1
1070
   273
1070
     8
1070
   274
1070
     4
1002
}
  0
DIMENSION
  5
1A5
330
2
100
AcDbEntity
  8
Dims
100
AcDbDimension
  2
*D3
 10
257.7246477373794
 20
-709.4611732873344
 30
0.0
 11
254.7325589939192
 21
-712.6460366253436
 31
0.0
 70
   128
  1
%%C5
 71
     5
 42
4.999999999999771
  3
STANDARD
100
AcDbAlignedDimension
 13
276.7684860159798
 23
-704.4611732873347
 33
0.0
 14
267.2684860159798
 24
-709.4611732873344
 34
0.0
 50
90.0
100
AcDbRotatedDimension
1001
ACAD
1000
DSTYLE
1002
{
1070
    41
1040
2.5
1070
    42
1040
0.625
1070
    43
1040
3.75
1070
    44
1040
0.625
1070
    73
1070
     0
1070
    74
1070
     0
1070
    77
1070
     1
1070
    78
1070
     8
1070
   140
1040
2.5
1070
   141
1040
2.5
1070
   143
1040
0.0394
1070
   147
1040
0.625
1070
   171
1070
     4
1070
   172
1070
     1
1070
   273
1070
     8
1070
   274
1070
     4
1070
   279
1070
     2
1002
}
  0
DIMENSION
  5
1B4
330
2
100
AcDbEntity
  8
Dims
100
AcDbDimension
  2
*D2
 10
250.1656894486877
 20
-717.9611732873346
 30
0.0
 11
250.1656894486878
 21
-712.4887381174251
 31
0.0
 70
   128
  1
φ22
 71
     5
 42
22.0
  3
STANDARD
100
AcDbAlignedDimension
 13
280.26848601598
 23
-695.9611732873347
 33
0.0
 14
280.26848601598
 24
-717.9611732873347
 34
0.0
 50
90.0
100
AcDbRotatedDimension
1001
ACAD
1000
DSTYLE
1002
{
1070
    41
1040
2.5
1070
    42
1040
0.625
1070
    43
1040
3.75
1070
    44
1040
0.625
1070
    73
1070
     0
1070
    74
1070
     0
1070
    77
1070
     1
1070
    78
1070
     8
1070
   140
1040
2.5
1070
   141
1040
2.5
1070
   143
1040
0.0394
1070
   147
1040
0.625
1070
   171
1070
     4
1070
   172
1070
     1
1070
   273
1070
     8
1070
   274
1070
     4
1002
}
  0
TEXT
  5
1C1
330
2
100
AcDbEntity
  8
Dims
100
AcDbText
 10
249.0739525216322
 20
-708.405989136448
 30
0.0
 40
2.0
  1
-0.025
 50
90.0
100
AcDbText
  0
LINE
  5
1C2
330
2
100
AcDbEntity
  8
Object
100
AcDbLine
 10
227.3877369854961
 20
-720.9611732873318
 30
0.0
 11
227.3877369854963
 21
-675.4611732873321
 31
0.0
  0
LWPOLYLINE
  5
1C3
330
2
100
AcDbEntity
  8
Object
 48
0.5
100
AcDbPolyline
 90
        2
 70
     0
 43
0.0
 10
227.3877369854963
 20
-719.4336429705985
 10
227.3877369854963
 20
-694.4887036040655
  0
LWPOLYLINE
  5
1C4
330
2
100
AcDbEntity
  8
Object
 48
0.5
100
AcDbPolyline
 90
        2
 70
     0
 43
0.0
 10
227.3877369854963
 20
-719.4336429705985
 10
227.3877369854963
 20
-694.4887036040654
  0
ARC
  5
1C5
330
2
100
AcDbEntity
  8
Object
 48
0.5
100
AcDbCircle
 10
228.6877369854964
 20
-716.1111732873372
 30
0.0
 40
1.0
100
AcDbArc
 50
289.3103733391127
 51
0.0
  0
ARC
  5
1C6
330
2
100
AcDbEntity
  8
Object
 48
0.5
370
    30
100
AcDbCircle
 10
228.6877369854964
 20
-713.6111732873374
 30
0.0
 40
1.0
100
AcDbArc
 50
0.0
 51
70.68962666215006
  0
LINE
  5
1C7
330
2
100
AcDbEntity
  8
Object
 48
0.5
100
AcDbLine
 10
229.0184222469158
 20
-717.0549143841781
 30
0.0
 11
227.9877369854964
 21
-717.054914384178
 31
0.0
  0
ARC
  5
1C8
330
2
100
AcDbEntity
  8
Object
 48
0.5
100
AcDbCircle
 10
228.9618310647909
 20
-715.9580438357539
 30
0.0
 40
0.4330127018920962
100
AcDbArc
 50
270.0
 51
90.0
  0
LINE
  5
1C9
330
2
100
AcDbEntity
  8
Object
 48
0.5
100
AcDbLine
 10
228.9618310647909
 20
-716.3910565376461
 30
0.0
 11
227.9877369854964
 21
-716.391056537646
 31
0.0
  0
LINE
  5
1CA
330
2
100
AcDbEntity
  8
Object
 48
0.5
100
AcDbLine
 10
228.9618310647909
 20
-715.5250311338618
 30
0.0
 11
227.9877369854964
 21
-715.5250311338619
 31
0.0
  0
ARC
  5
1CB
330
2
100
AcDbEntity
  8
Object
 48
0.5
100
AcDbCircle
 10
228.9618310647909
 20
-713.7643027389134
 30
0.0
 40
0.4330127018920962
100
AcDbArc
 50
270.0
 51
90.0
  0
LINE
  5
1CC
330
2
100
AcDbEntity
  8
Object
 48
0.5
100
AcDbLine
 10
229.0184222469158
 20
-712.6674321904892
 30
0.0
 11
227.9877369854964
 21
-712.6674321904893
 31
0.0
  0
LINE
  5
1CD
330
2
100
AcDbEntity
  8
Object
 48
0.5
100
AcDbLine
 10
228.9618310647909
 20
-713.3312900370212
 30
0.0
 11
227.9877369854964
 21
-713.3312900370213
 31
0.0
  0
LINE
  5
1CE
330
2
100
AcDbEntity
  8
Object
 48
0.5
100
AcDbLine
 10
228.9618310647909
 20
-714.1973154408055
 30
0.0
 11
227.9877369854964
 21
-714.1973154408052
 31
0.0
  0
LINE
  5
1CF
330
2
100
AcDbEntity
  8
Object
100
AcDbLine
 10
227.3877369854963
 20
-712.2111732873337
 30
0.0
 11
227.9877369854964
 21
-712.2111732873337
 31
0.0
  0
POINT
  5
1D0
330
2
100
AcDbEntity
  8
Object
 48
0.5
100
AcDbPoint
 10
228.3877369854962
 20
-711.1611732873317
 30
0.0
  0
LINE
  5
1D1
330
2
100
AcDbEntity
  8
Object
100
AcDbLine
 10
227.3877369854963
 20
-717.5111732873335
 30
0.0
 11
227.9877369854964
 21
-717.5111732873337
 31
0.0
  0
LINE
  5
1D2
330
2
100
AcDbEntity
  8
Object
 48
0.5
100
AcDbLine
 10
227.9877369854964
 20
-717.5111732873337
 30
0.0
 11
227.9877369854964
 21
-712.2111732873337
 31
0.0
  0
LINE
  5
1D3
330
2
100
AcDbEntity
  8
Object
 48
0.5
100
AcDbLine
 10
227.3877369854963
 20
-712.2111732873337
 30
0.0
 11
227.3877369854963
 21
-717.5111732873335
 31
0.0
  0
LINE
  5
1D4
330
2
100
AcDbEntity
  8
画層1
 62
     0
 48
0.5
370
    30
100
AcDbLine
 10
229.6877369854964
 20
-716.1111732873372
 30
0.0
 11
229.6877369854964
 21
-713.6111732873374
 31
0.0
  0
TEXT
  5
1D5
330
2
100
AcDbEntity
  8
Dims
100
AcDbText
 10
246.6646692195671
 20
-705.9181571965644
 30
0.0
 40
2.0
  1
0
 50
90.0
100
AcDbText
  0
ARC
  5
1D6
330
2
100
AcDbEntity
  8
Object
 48
0.5
370
    30
100
AcDbCircle
 10
233.9877369854951
 20
-673.6111732873332
 30
0.0
 40
1.0
100
AcDbArc
 50
0.0
 51
70.68962666215006
  0
ARC
  5
1D7
330
2
100
AcDbEntity
  8
Object
 48
0.5
100
AcDbCircle
 10
233.9877369854951
 20
-676.1111732873332
 30
0.0
 40
1.0
100
AcDbArc
 50
289.3103733391127
 51
0.0
  0
ARC
  5
1D8
330
2
100
AcDbEntity
  8
Object
 48
0.5
100
AcDbCircle
 10
234.2618310647896
 20
-673.7643027389092
 30
0.0
 40
0.4330127018920962
100
AcDbArc
 50
270.0
 51
90.0
  0
LINE
  5
1D9
330
2
100
AcDbEntity
  8
Object
 48
0.5
100
AcDbLine
 10
234.3184222469146
 20
-672.6674321904852
 30
0.0
 11
233.2877369854951
 21
-672.6674321904852
 31
0.0
  0
LINE
  5
1DA
330
2
100
AcDbEntity
  8
Object
 48
0.5
100
AcDbLine
 10
234.2618310647896
 20
-673.3312900370171
 30
0.0
 11
233.2877369854951
 21
-673.3312900370171
 31
0.0
  0
LINE
  5
1DB
330
2
100
AcDbEntity
  8
Object
 48
0.5
100
AcDbLine
 10
234.2618310647896
 20
-674.1973154408014
 30
0.0
 11
233.2877369854951
 21
-674.1973154408013
 31
0.0
  0
ARC
  5
1DC
330
2
100
AcDbEntity
  8
Object
 48
0.5
100
AcDbCircle
 10
234.2618310647896
 20
-675.9580438357499
 30
0.0
 40
0.4330127018920962
100
AcDbArc
 50
270.0
 51
90.0
  0
LINE
  5
1DD
330
2
100
AcDbEntity
  8
Object
 48
0.5
100
AcDbLine
 10
234.2618310647896
 20
-676.3910565376419
 30
0.0
 11
233.2877369854951
 21
-676.3910565376419
 31
0.0
  0
LINE
  5
1DE
330
2
100
AcDbEntity
  8
Object
 48
0.5
100
AcDbLine
 10
234.2618310647896
 20
-675.5250311338577
 30
0.0
 11
233.2877369854951
 21
-675.525031133858
 31
0.0
  0
LINE
  5
1DF
330
2
100
AcDbEntity
  8
Object
 48
0.5
100
AcDbLine
 10
234.3184222469146
 20
-677.0549143841739
 30
0.0
 11
233.2877369854951
 21
-677.0549143841739
 31
0.0
  0
LINE
  5
1E0
330
2
100
AcDbEntity
  8
Object
 48
0.5
100
AcDbLine
 10
233.2877369854951
 20
-677.5111732873296
 30
0.0
 11
233.2877369854951
 21
-672.2111732873296
 31
0.0
  0
LINE
  5
1E1
330
2
100
AcDbEntity
  8
Object
 48
0.5
100
AcDbLine
 10
232.687736985495
 20
-672.2111732873296
 30
0.0
 11
232.687736985495
 21
-677.5111732873295
 31
0.0
  0
LINE
  5
1E2
330
2
100
AcDbEntity
  8
Object
100
AcDbLine
 10
232.687736985495
 20
-672.2111732873296
 30
0.0
 11
233.2877369854951
 21
-672.2111732873296
 31
0.0
  0
LINE
  5
1E3
330
2
100
AcDbEntity
  8
Object
100
AcDbLine
 10
232.687736985495
 20
-677.5111732873295
 30
0.0
 11
233.2877369854951
 21
-677.5111732873296
 31
0.0
  0
LINE
  5
1E4
330
2
100
AcDbEntity
  8
画層1
 62
     0
 48
0.5
370
    30
100
AcDbLine
 10
234.9877369854951
 20
-676.1111732873332
 30
0.0
 11
234.9877369854951
 21
-673.6111732873332
 31
0.0
  0
TEXT
  5
1E5
330
2
100
AcDbEntity
  8
Dims
100
AcDbText
 10
254.2662118816923
 20
-707.1286054572635
 30
0.0
 40
2.0
  1
0
 50
90.0
100
AcDbText
  0
TEXT
  5
1E6
330
2
100
AcDbEntity
  8
Dims
100
AcDbText
 10
256.5680370521821
 20
-709.6676399945149
 30
0.0
 40
2.0
  1
-0.012
 50
90.0
100
AcDbText
  0
TEXT
  5
1E7
330
2
100
AcDbEntity
  8
Dims
100
AcDbText
 10
261.7789430933934
 20
-725.2474404006425
 30
0.0
 40
2.0
  1
%%p0.2
 50
90.0
100
AcDbText
  0
DIMENSION
  5
1E8
330
2
100
AcDbEntity
  8
Dims
100
AcDbDimension
  2
*D4
 10
262.9214319233615
 20
-709.4611732873344
 30
0.0
 11
262.9214319233615
 21
-728.21848761102
 31
0.0
 70
   128
 71
     5
 42
4.5
  3
STANDARD
100
AcDbAlignedDimension
 13
266.7684860159801
 23
-704.9611732873344
 33
0.0
 14
267.2684860159798
 24
-709.4611732873344
 34
0.0
 50
90.0
100
AcDbRotatedDimension
1001
ACAD
1000
DSTYLE
1002
{
1070
    41
1040
2.5
1070
    42
1040
0.625
1070
    43
1040
3.75
1070
    44
1040
0.625
1070
    73
1070
     0
1070
    74
1070
     0
1070
    77
1070
     1
1070
    78
1070
     8
1070
   140
1040
2.5
1070
   141
1040
2.5
1070
   143
1040
0.0394
1070
   147
1040
0.625
1070
   171
1070
     4
1070
   172
1070
     1
1070
   273
1070
     8
1070
   274
1070
     4
1002
}
  0
LINE
  5
1F7
330
2
100
AcDbEntity
  8
Object
 48
2.0
370
    30
100
AcDbLine
 10
266.7684860159793
 20
-708.961173287333
 30
0.0
 11
267.2684860159793
 21
-709.4611732873332
 31
0.0
  0
LINE
  5
1F8
330
2
100
AcDbEntity
  8
Object
 48
2.0
370
    30
100
AcDbLine
 10
266.7684860159793
 20
-704.961173287333
 30
0.0
 11
266.7684860159793
 21
-708.961173287333
 31
0.0
  0
LINE
  5
1F9
330
2
100
AcDbEntity
  8
Object
 48
0.5
370
    30
100
AcDbLine
 10
267.2684860159793
 20
-704.961173287333
 30
0.0
 11
267.2684860159793
 21
-709.4611732873332
 31
0.0
  0
DIMENSION
  5
1FF
330
2
100
AcDbEntity
  8
Dims
100
AcDbDimension
  2
*D6
 10
281.7684860159798
 20
-730.0183867003925
 30
0.0
 11
289.833962206456
 21
-730.0183867003925
 31
0.0
 70
   128
 71
     5
 42
1.499999999999885
  3
STANDARD
100
AcDbAlignedDimension
 13
280.26848601598
 23
-717.9611732873347
 33
0.0
 14
281.7684860159798
 24
-720.9611732873347
 34
0.0
100
AcDbRotatedDimension
1001
ACAD
1000
DSTYLE
1002
{
1070
    41
1040
2.5
1070
    42
1040
0.625
1070
    43
1040
3.75
1070
    44
1040
0.625
1070
    73
1070
     0
1070
    74
1070
     0
1070
    77
1070
     1
1070
    78
1070
     8
1070
   140
1040
2.5
1070
   141
1040
2.5
1070
   143
1040
0.0394
1070
   147
1040
0.625
1070
   171
1070
     4
1070
   172
1070
     1
1070
   273
1070
     8
1070
   274
1070
     4
1002
}
  0
LINE
  5
20E
330
2
100
AcDbEntity
  8
Object
 48
2.0
370
    30
100
AcDbLine
 10
280.2684860159791
 20
-695.961173287333
 30
0.0
 11
281.7684860159793
 21
-695.961173287333
 31
0.0
  0
LINE
  5
20F
330
2
100
AcDbEntity
  8
Object
 48
2.0
370
    30
100
AcDbLine
 10
280.2684860159791
 20
-717.9611732873332
 30
0.0
 11
281.7684860159793
 21
-717.9611732873332
 31
0.0
  0
TEXT
  5
210
330
2
100
AcDbEntity
  8
Dims
100
AcDbText
 10
273.0421561080288
 20
-741.0728902524166
 30
0.0
 40
2.0
  1
%%p0.5
100
AcDbText
  0
TEXT
  5
211
330
2
100
AcDbEntity
  8
Dims
100
AcDbText
 10
271.4675415264646
 20
-699.8012387365329
 30
0.0
 40
2.0
  1
%%p0.5
100
AcDbText
  0
LINE
  5
212
330
2
100
AcDbEntity
  8
Object
 48
2.0
370
    30
100
AcDbLine
 10
280.2684860159791
 20
-695.961173287333
 30
0.0
 11
280.2684860159791
 21
-717.9611732873332
 31
0.0
  0
LINE
  5
213
330
2
100
AcDbEntity
  8
Object
 48
2.0
370
    30
100
AcDbLine
 10
276.7684860159793
 20
-704.461173287333
 30
0.0
 11
280.2684860159791
 21
-704.461173287333
 31
0.0
  0
LINE
  5
214
330
2
100
AcDbEntity
  8
Object
 48
2.0
370
    30
100
AcDbLine
 10
276.7684860159793
 20
-704.461173287333
 30
0.0
 11
276.7684860159793
 21
-704.9611732873331
 31
0.0
  0
LINE
  5
215
330
2
100
AcDbEntity
  8
Object
 48
2.0
370
    30
100
AcDbLine
 10
281.7684860159793
 20
-692.9611732873332
 30
0.0
 11
281.7684860159793
 21
-720.961173287333
 31
0.0
  0
LINE
  5
216
330
2
100
AcDbEntity
  8
Object
 48
2.0
370
    30
100
AcDbLine
 10
287.7684860159792
 20
-698.961173287333
 30
0.0
 11
287.7684860159792
 21
-714.9611732873331
 31
0.0
  0
ARC
  5
217
330
2
100
AcDbEntity
  8
Object
 48
2.0
370
    30
100
AcDbCircle
 10
288.7684860159793
 20
-715.961173287333
 30
0.0
 40
1.0
100
AcDbArc
 50
0.0
 51
90.0
  0
LINE
  5
218
330
2
100
AcDbEntity
  8
Object
 48
2.0
370
    30
100
AcDbLine
 10
287.7684860159792
 20
-714.9611732873331
 30
0.0
 11
288.7684860159793
 21
-714.9611732873331
 31
0.0
  0
LINE
  5
219
330
2
100
AcDbEntity
  8
Object
 48
2.0
370
    30
100
AcDbLine
 10
289.7684860159793
 20
-715.961173287333
 30
0.0
 11
289.7684860159793
 21
-720.961173287333
 31
0.0
  0
ARC
  5
21A
330
2
100
AcDbEntity
  8
Object
 48
2.0
370
    30
100
AcDbCircle
 10
288.7684860159793
 20
-697.9611732873332
 30
0.0
 40
1.0
100
AcDbArc
 50
270.0
 51
0.0
  0
LINE
  5
21B
330
2
100
AcDbEntity
  8
Object
 48
2.0
370
    30
100
AcDbLine
 10
287.7684860159792
 20
-698.961173287333
 30
0.0
 11
288.7684860159793
 21
-698.961173287333
 31
0.0
  0
LINE
  5
21C
330
2
100
AcDbEntity
  8
Object
 48
2.0
370
    30
100
AcDbLine
 10
288.2684860159793
 20
-698.961173287333
 30
0.0
 11
288.2684860159793
 21
-701.2170542243978
 31
0.0
  0
LINE
  5
21D
330
2
100
AcDbEntity
  8
Object
 48
2.0
370
    30
100
AcDbLine
 10
288.7684860159793
 20
-698.961173287333
 30
0.0
 11
288.7684860159792
 21
-701.0350691072649
 31
0.0
  0
LINE
  5
21E
330
2
100
AcDbEntity
  8
Object
 48
2.0
370
    30
100
AcDbLine
 10
291.2684860159793
 20
-692.9611732873332
 30
0.0
 11
291.2684860159793
 21
-694.1611732873332
 31
0.0
  0
LINE
  5
21F
330
2
100
AcDbEntity
  8
Object
 48
2.0
370
    30
100
AcDbLine
 10
290.7684860159793
 20
-692.9611732873332
 30
0.0
 11
290.7684860159793
 21
-694.1611732873332
 31
0.0
  0
LINE
  5
220
330
2
100
AcDbEntity
  8
Object
 48
2.0
370
    30
100
AcDbLine
 10
290.2684860159792
 20
-692.9611732873332
 30
0.0
 11
290.2684860159792
 21
-694.1611732873332
 31
0.0
  0
LINE
  5
221
330
2
100
AcDbEntity
  8
Object
 48
2.0
370
    30
100
AcDbLine
 10
290.7684860159793
 20
-696.7611732873331
 30
0.0
 11
290.7684860159791
 21
-700.3071286387323
 31
0.0
  0
LINE
  5
222
330
2
100
AcDbEntity
  8
Object
 48
2.0
370
    30
100
AcDbLine
 10
291.2684860159793
 20
-696.7611732873331
 30
0.0
 11
291.2684860159793
 21
-700.1251435215992
 31
0.0
  0
LINE
  5
223
330
2
100
AcDbEntity
  8
Object
 48
2.0
370
    30
100
AcDbLine
 10
290.2684860159792
 20
-696.7611732873331
 30
0.0
 11
290.2684860159792
 21
-700.4891137558656
 31
0.0
  0
LINE
  5
224
330
2
100
AcDbEntity
  8
Object
 48
2.0
370
    30
100
AcDbLine
 10
289.7684860159793
 20
-696.7611732873331
 30
0.0
 11
289.7684860159791
 21
-700.6710988729986
 31
0.0
  0
LINE
  5
225
330
2
100
AcDbEntity
  8
Object
 48
2.0
370
    30
100
AcDbLine
 10
289.2684860159793
 20
-698.8271986911176
 30
0.0
 11
289.2684860159791
 21
-700.8530839901317
 31
0.0
  0
LINE
  5
226
330
2
100
AcDbEntity
  8
Object
 48
2.0
370
    30
100
AcDbLine
 10
289.7684860159793
 20
-692.9611732873332
 30
0.0
 11
289.7684860159793
 21
-697.9611732873332
 31
0.0
  0
TEXT
  5
23D
330
2
100
AcDbEntity
  8
Dims
100
AcDbText
 10
293.0420049510346
 20
-728.6528668914914
 30
0.0
 40
2.0
  1
%%p0.2
100
AcDbText
  0
LINE
  5
23E
330
2
100
AcDbEntity
  8
Object
 48
2.0
370
    30
100
AcDbLine
 10
292.2684860159792
 20
-692.9611732873332
 30
0.0
 11
292.2684860159792
 21
-694.1611732873332
 31
0.0
  0
LINE
  5
23F
330
2
100
AcDbEntity
  8
Object
 48
2.0
370
    30
100
AcDbLine
 10
291.7684860159793
 20
-692.9611732873332
 30
0.0
 11
291.7684860159793
 21
-694.1611732873332
 31
0.0
  0
LINE
  5
240
330
2
100
AcDbEntity
  8
Object
 48
2.0
370
    30
100
AcDbLine
 10
292.2684860159792
 20
-696.7611732873332
 30
0.0
 11
292.2684860159792
 21
-699.7611732873332
 31
0.0
  0
LINE
  5
241
330
2
100
AcDbEntity
  8
Object
 48
2.0
370
    30
100
AcDbLine
 10
291.7684860159793
 20
-696.7611732873331
 30
0.0
 11
291.7684860159791
 21
-699.9431584044661
 31
0.0
  0
DIMENSION
  5
2CB
330
2
100
AcDbEntity
  8
Dims
 48
0.5
100
AcDbDimension
  2
*D18
 10
430.5736777605599
 20
-737.1387774104744
 30
0.0
 11
411.2736777605596
 21
-734.6090155057124
 31
0.0
 70
     1
  1
(39)
 71
     5
 42
38.60000000000025
  3
STANDARD
100
AcDbAlignedDimension
 13
391.9736777605596
 23
-720.961173287333
 33
0.0
 14
430.5736777605599
 24
-720.961173287333
 34
0.0
1001
ACAD
1000
DSTYLE
1002
{
1070
    41
1040
2.5
1070
    42
1040
0.625
1070
    43
1040
3.75
1070
    44
1040
1.25
1070
    73
1070
     0
1070
    74
1070
     0
1070
    77
1070
     1
1070
    78
1070
     8
1070
   140
1040
2.5
1070
   141
1040
2.5
1070
   143
1040
0.0394
1070
   147
1040
0.625
1070
   171
1070
     4
1070
   172
1070
     1
1070
   273
1070
     8
1070
   274
1070
     4
1070
   277
1070
     6
1002
}
  0
LINE
  5
2D8
330
2
100
AcDbEntity
  8
Dims
100
AcDbLine
 10
398.2736777605591
 20
-668.6611732873335
 30
0.0
 11
424.2736777605593
 21
-668.6611732873326
 31
0.0
  0
LWPOLYLINE
  5
2D9
330
2
100
AcDbEntity
  8
Object
100
AcDbPolyline
 90
        4
 70
     1
 43
0.0
 10
430.5736777605599
 20
-720.9611732873329
 10
391.9736777605598
 20
-720.9611732873329
 10
391.9736777605598
 20
-669.861173287333
 10
430.5736777605599
 20
-669.861173287333
  0
LINE
  5
2DA
330
2
100
AcDbEntity
  8
Object
 48
0.5
100
AcDbLine
 10
392.7736777605596
 20
-670.6611732873328
 30
0.0
 11
429.7736777605599
 21
-670.6611732873327
 31
0.0
  0
LINE
  5
2DB
330
2
100
AcDbEntity
  8
Object
100
AcDbLine
 10
429.5736777605601
 20
-720.9611732873317
 30
0.0
 11
392.9736777605598
 21
-720.9611732873317
 31
0.0
  0
LINE
  5
2DC
330
2
100
AcDbEntity
  8
Object
100
AcDbLine
 10
429.5736777605598
 20
-669.8611732873319
 30
0.0
 11
392.9736777605604
 21
-669.8611732873318
 31
0.0
  0
LWPOLYLINE
  5
2DD
330
2
100
AcDbEntity
  8
Object
100
AcDbPolyline
 90
        4
 70
     0
 43
0.0
 10
429.7736777605599
 20
-676.1611732873317
 10
429.7736777605599
 20
-720.9611732873329
 10
392.7736777605596
 20
-720.9611732873329
 10
392.7736777605596
 20
-676.1611732873316
  0
LWPOLYLINE
  5
2DE
330
2
100
AcDbEntity
  8
Object
100
AcDbPolyline
 90
        4
 70
     0
 43
0.0
 10
392.7736777605596
 20
-673.5611732873318
 10
392.7736777605596
 20
-669.861173287333
 10
429.7736777605599
 20
-669.861173287333
 10
429.7736777605599
 20
-673.5611732873318
  0
LINE
  5
2EB
330
2
100
AcDbEntity
  8
Dims
100
AcDbLine
 10
356.7184860159806
 20
-668.9111732873317
 30
0.0
 11
356.6184860159807
 21
-668.6611732873318
 31
0.0
  0
LINE
  5
2EC
330
2
100
AcDbEntity
  8
Dims
100
AcDbLine
 10
359.8184860159808
 20
-668.6611732873318
 30
0.0
 11
355.6184860159806
 21
-668.6611732873318
 31
0.0
  0
LINE
  5
2ED
330
2
100
AcDbEntity
  8
Object
100
AcDbLine
 10
358.0684860159813
 20
-669.8611732873318
 30
0.0
 11
356.6184860159807
 21
-669.8611732873318
 31
0.0
  0
LINE
  5
2EE
330
2
100
AcDbEntity
  8
Object
100
AcDbLine
 10
362.6184860159803
 20
-669.8611732873303
 30
0.0
 11
355.8184860159805
 21
-669.8611732873314
 31
0.0
  0
LINE
  5
2F1
330
2
100
AcDbEntity
  8
Object
100
AcDbLine
 10
363.6184860159803
 20
-669.8611732873339
 30
0.0
 11
356.6184860159803
 21
-669.8611732873339
 31
0.0
  0
LINE
  5
2F2
330
2
100
AcDbEntity
  8
Object
100
AcDbLine
 10
363.6184860159807
 20
-720.9611732873337
 30
0.0
 11
356.6184860159807
 21
-720.9611732873337
 31
0.0
  0
LINE
  5
2F3
330
2
100
AcDbEntity
  8
Object
100
AcDbLine
 10
358.0684860159796
 20
-720.9611732873317
 30
0.0
 11
348.6184860159803
 21
-720.9611732873317
 31
0.0
  0
DIMENSION
  5
2F4
330
2
100
AcDbEntity
  8
Dims
 48
0.5
100
AcDbDimension
  2
*D20
 10
347.8184860159798
 20
-742.0953258544749
 30
0.0
 11
357.26848601598
 21
-742.0953258544749
 31
0.0
 70
   129
  1
(19)
 71
     5
 42
18.90000000000026
  3
STANDARD
100
AcDbAlignedDimension
 13
366.7184860159801
 23
-710.3611732873332
 33
0.0
 14
347.8184860159798
 24
-710.3611732873332
 34
0.0
1001
ACAD
1000
DSTYLE
1002
{
1070
    41
1040
2.5
1070
    42
1040
0.625
1070
    43
1040
3.75
1070
    44
1040
1.25
1070
    73
1070
     0
1070
    74
1070
     0
1070
    77
1070
     1
1070
    78
1070
     8
1070
   140
1040
2.5
1070
   141
1040
2.5
1070
   143
1040
0.0394
1070
   147
1040
0.625
1070
   171
1070
     4
1070
   172
1070
     1
1070
   273
1070
     8
1070
   274
1070
     4
1070
   277
1070
     6
1002
}
  0
ARC
  5
30A
330
2
100
AcDbEntity
  8
Object
 48
0.5
100
AcDbCircle
 10
334.7684860159795
 20
-718.7319653673065
 30
0.0
 40
1.75
100
AcDbArc
 50
73.39845040097656
 51
106.6015495990233
  0
ARC
  5
30B
330
2
100
AcDbEntity
  8
Object
 48
0.5
100
AcDbCircle
 10
334.7684860159799
 20
-710.9903812073609
 30
0.0
 40
1.75
100
AcDbArc
 50
253.3984504009766
 51
286.6015495990233
  0
LINE
  5
30C
330
2
100
AcDbEntity
  8
Dims
 48
0.5
100
AcDbLine
 10
337.2684860159789
 20
-720.361173287333
 30
0.0
 11
332.2684860159791
 21
-720.361173287333
 31
0.0
  0
CIRCLE
  5
30D
330
2
100
AcDbEntity
  8
Object
 48
0.5
100
AcDbCircle
 10
334.7684860159799
 20
-714.8611732873336
 30
0.0
 40
2.649999999999999
  0
LINE
  5
30E
330
2
100
AcDbEntity
  8
Object
 48
0.5
100
AcDbLine
 10
331.2684860159798
 20
-720.9611732873317
 30
0.0
 11
347.2184860159801
 21
-720.9611732873317
 31
0.0
  0
DIMENSION
  5
314
330
2
100
AcDbEntity
  8
Dims
 48
0.5
100
AcDbDimension
  2
*D21
 10
347.8184860159798
 20
-742.0953258544749
 30
0.0
 11
338.5434860159795
 21
-739.5655639497131
 31
0.0
 70
     1
  1
(18.6)
 71
     5
 42
18.55000000000068
  3
STANDARD
100
AcDbAlignedDimension
 13
329.2684860159791
 23
-720.961173287333
 33
0.0
 14
347.8184860159798
 24
-720.961173287333
 34
0.0
1001
ACAD
1000
DSTYLE
1002
{
1070
    41
1040
2.5
1070
    42
1040
0.625
1070
    43
1040
3.75
1070
    44
1040
1.25
1070
    73
1070
     0
1070
    74
1070
     0
1070
    77
1070
     1
1070
    78
1070
     8
1070
   140
1040
2.5
1070
   141
1040
2.5
1070
   143
1040
0.0394
1070
   147
1040
0.625
1070
   171
1070
     4
1070
   172
1070
     1
1070
   273
1070
     8
1070
   274
1070
     4
1070
   277
1070
     6
1002
}
  0
ARC
  5
321
330
2
100
AcDbEntity
  8
Object
 48
0.5
100
AcDbCircle
 10
335.2684860159791
 20
-681.4611732873317
 30
0.0
 40
6.0
100
AcDbArc
 50
90.0
 51
180.0
  0
ARC
  5
322
330
2
100
AcDbEntity
  8
Object
 48
0.5
100
AcDbCircle
 10
335.4684860159794
 20
-681.4611732873324
 30
0.0
 40
6.0
100
AcDbArc
 50
90.0
 51
180.0
  0
LINE
  5
323
330
2
100
AcDbEntity
  8
Object
 48
0.5
100
AcDbLine
 10
337.2184860159801
 20
-720.3611732873317
 30
0.0
 11
329.4684860159794
 21
-720.3611732873317
 31
0.0
  0
LINE
  5
324
330
2
100
AcDbEntity
  8
Object
 48
0.5
100
AcDbLine
 10
337.2184860159801
 20
-720.3611732873317
 30
0.0
 11
329.4684860159796
 21
-720.3611732873317
 31
0.0
  0
ARC
  5
325
330
2
100
AcDbEntity
  8
Text
 48
0.5
100
AcDbCircle
 10
326.0684860159793
 20
-686.9911732873337
 30
0.0
 40
5.0
100
AcDbArc
 50
90.0
 51
180.0000000000038
  0
LINE
  5
326
330
2
100
AcDbEntity
  8
Object
 48
0.5
370
    30
100
AcDbLine
 10
320.7684860159793
 20
-691.961173287333
 30
0.0
 11
328.7684860159793
 21
-691.961173287333
 31
0.0
  0
ARC
  5
327
330
2
100
AcDbEntity
  8
Object
 48
2.0
370
    30
100
AcDbCircle
 10
319.2684860159793
 20
-697.9611732873332
 30
0.0
 40
1.0
100
AcDbArc
 50
180.0
 51
270.0
  0
ARC
  5
328
330
2
100
AcDbEntity
  8
Object
 48
2.0
370
    30
100
AcDbCircle
 10
319.2684860159793
 20
-715.961173287333
 30
0.0
 40
1.0
100
AcDbArc
 50
90.0
 51
180.0
  0
LINE
  5
329
330
2
100
AcDbEntity
  8
Object
 48
2.0
370
    30
100
AcDbLine
 10
315.7684860159793
 20
-714.1611732873331
 30
0.0
 11
315.7684860159793
 21
-717.1611732873332
 31
0.0
  0
LINE
  5
32A
330
2
100
AcDbEntity
  8
Object
 48
2.0
370
    30
100
AcDbLine
 10
315.7684860159793
 20
-719.7611732873332
 30
0.0
 11
315.7684860159791
 21
-720.961173287333
 31
0.0
  0
LINE
  5
32B
330
2
100
AcDbEntity
  8
Object
 48
2.0
370
    30
100
AcDbLine
 10
318.7684860159793
 20
-713.0692625845346
 30
0.0
 11
318.7684860159793
 21
-715.0951478835487
 31
0.0
  0
LINE
  5
32C
330
2
100
AcDbEntity
  8
Object
 48
2.0
370
    30
100
AcDbLine
 10
318.2684860159793
 20
-713.2512477016677
 30
0.0
 11
318.2684860159793
 21
-715.961173287333
 31
0.0
  0
LINE
  5
32D
330
2
100
AcDbEntity
  8
Object
 48
2.0
370
    30
100
AcDbLine
 10
318.2684860159793
 20
-715.961173287333
 30
0.0
 11
318.2684860159793
 21
-720.961173287333
 31
0.0
  0
LINE
  5
32E
330
2
100
AcDbEntity
  8
Object
 48
2.0
370
    30
100
AcDbLine
 10
316.7684860159791
 20
-713.797203053067
 30
0.0
 11
316.7684860159791
 21
-717.1611732873332
 31
0.0
  0
LINE
  5
32F
330
2
100
AcDbEntity
  8
Object
 48
2.0
370
    30
100
AcDbLine
 10
316.2684860159791
 20
-713.9791881702002
 30
0.0
 11
316.2684860159791
 21
-717.1611732873332
 31
0.0
  0
LINE
  5
330
330
2
100
AcDbEntity
  8
Object
 48
2.0
370
    30
100
AcDbLine
 10
317.2684860159793
 20
-713.6152179359338
 30
0.0
 11
317.2684860159792
 21
-717.1611732873332
 31
0.0
  0
LINE
  5
331
330
2
100
AcDbEntity
  8
Object
 48
2.0
370
    30
100
AcDbLine
 10
317.768486015979
 20
-713.4332328188007
 30
0.0
 11
317.768486015979
 21
-717.1611732873332
 31
0.0
  0
LINE
  5
332
330
2
100
AcDbEntity
  8
Object
 48
2.0
370
    30
100
AcDbLine
 10
316.7684860159791
 20
-719.7611732873332
 30
0.0
 11
316.7684860159791
 21
-720.961173287333
 31
0.0
  0
LINE
  5
333
330
2
100
AcDbEntity
  8
Object
 48
2.0
370
    30
100
AcDbLine
 10
316.2684860159791
 20
-719.7611732873332
 30
0.0
 11
316.2684860159791
 21
-720.961173287333
 31
0.0
  0
LINE
  5
334
330
2
100
AcDbEntity
  8
Object
 48
2.0
370
    30
100
AcDbLine
 10
317.2684860159792
 20
-719.7611732873332
 30
0.0
 11
317.2684860159792
 21
-720.961173287333
 31
0.0
  0
LINE
  5
335
330
2
100
AcDbEntity
  8
Object
 48
2.0
370
    30
100
AcDbLine
 10
317.768486015979
 20
-719.7611732873332
 30
0.0
 11
317.7684860159792
 21
-720.961173287333
 31
0.0
  0
LINE
  5
336
330
2
100
AcDbEntity
  8
Object
 48
2.0
370
    30
100
AcDbLine
 10
318.2684860159793
 20
-692.9611732873332
 30
0.0
 11
318.2684860159793
 21
-697.9611732873332
 31
0.0
  0
LINE
  5
337
330
2
100
AcDbEntity
  8
Object
 48
2.0
370
    30
100
AcDbLine
 10
320.2684860159793
 20
-698.961173287333
 30
0.0
 11
320.2684860159793
 21
-714.9611732873331
 31
0.0
  0
LINE
  5
338
330
2
100
AcDbEntity
  8
Object
 48
2.0
370
    30
100
AcDbLine
 10
320.2684860159793
 20
-714.9611732873331
 30
0.0
 11
319.2684860159793
 21
-714.9611732873331
 31
0.0
  0
LINE
  5
339
330
2
100
AcDbEntity
  8
Object
 48
2.0
370
    30
100
AcDbLine
 10
319.7684860159792
 20
-712.7052923502684
 30
0.0
 11
319.7684860159792
 21
-714.9611732873331
 31
0.0
  0
LINE
  5
33A
330
2
100
AcDbEntity
  8
Object
 48
2.0
370
    30
100
AcDbLine
 10
319.2684860159793
 20
-712.8872774674014
 30
0.0
 11
319.2684860159793
 21
-714.9611732873331
 31
0.0
  0
LINE
  5
33B
330
2
100
AcDbEntity
  8
Object
 48
0.5
100
AcDbLine
 10
320.2684860159793
 20
-692.461173287333
 30
0.0
 11
320.2684860159793
 21
-692.9611732873332
 31
0.0
  0
ARC
  5
33C
330
2
100
AcDbEntity
  8
Object
 48
0.5
370
    30
100
AcDbCircle
 10
320.7684860159793
 20
-692.461173287333
 30
0.0
 40
0.5
100
AcDbArc
 50
90.0
 51
180.0
  0
LINE
  5
33D
330
2
100
AcDbEntity
  8
Text
 48
0.5
100
AcDbLine
 10
321.0684860159799
 20
-691.9611732873318
 30
0.0
 11
321.0684860159795
 21
-686.9911732873339
 31
0.0
  0
LINE
  5
33E
330
2
100
AcDbEntity
  8
Object
 48
2.0
370
    30
100
AcDbLine
 10
320.2684860159793
 20
-698.961173287333
 30
0.0
 11
319.2684860159793
 21
-698.961173287333
 31
0.0
  0
LINE
  5
33F
330
2
100
AcDbEntity
  8
Hidden
 48
0.5
100
AcDbLine
 10
329.2684860159793
 20
-720.361173287333
 30
0.0
 11
332.2684860159792
 21
-720.361173287333
 31
0.0
  0
LINE
  5
340
330
2
100
AcDbEntity
  8
Object
 48
0.5
100
AcDbLine
 10
329.4684860159796
 20
-720.961173287333
 30
0.0
 11
332.2684860159793
 21
-720.961173287333
 31
0.0
  0
LINE
  5
341
330
2
100
AcDbEntity
  8
Object
 48
0.5
100
AcDbLine
 10
329.4684860159796
 20
-713.3611732873332
 30
0.0
 11
332.5838807884849
 21
-713.3611732873332
 31
0.0
  0
LINE
  5
342
330
2
100
AcDbEntity
  8
Object
 48
0.5
100
AcDbLine
 10
329.4684860159796
 20
-716.3611732873333
 30
0.0
 11
332.5838807884843
 21
-716.3611732873333
 31
0.0
  0
LINE
  5
343
330
2
100
AcDbEntity
  8
Object
 48
0.5
100
AcDbLine
 10
329.2684860159798
 20
-715.461173287333
 30
0.0
 11
329.2684860159798
 21
-698.4611732873331
 31
0.0
  0
LINE
  5
344
330
2
100
AcDbEntity
  8
Object
 48
0.5
100
AcDbLine
 10
329.4684860159796
 20
-713.3611732873332
 30
0.0
 11
329.4684860159794
 21
-681.4611732873324
 31
0.0
  0
LINE
  5
345
330
2
100
AcDbEntity
  8
Text
 48
2.0
370
    30
100
AcDbLine
 10
329.2684860159793
 20
-692.461173287333
 30
0.0
 11
329.2684860159793
 21
-720.961173287333
 31
0.0
  0
LINE
  5
346
330
2
100
AcDbEntity
  8
Object
 48
0.5
100
AcDbLine
 10
329.2684860159793
 20
-681.4611732873317
 30
0.0
 11
329.2684860159793
 21
-719.961173287333
 31
0.0
  0
LINE
  5
347
330
2
100
AcDbEntity
  8
Object
 48
0.5
370
    30
100
AcDbLine
 10
329.2684860159793
 20
-715.961173287333
 30
0.0
 11
326.7684860159793
 21
-715.961173287333
 31
0.0
  0
LINE
  5
348
330
2
100
AcDbEntity
  8
Object
 48
0.5
370
    30
100
AcDbLine
 10
327.7684860159792
 20
-716.2611732873332
 30
0.0
 11
326.7684860159793
 21
-716.2611732873332
 31
0.0
  0
LINE
  5
349
330
2
100
AcDbEntity
  8
Object
 48
0.5
370
    30
100
AcDbLine
 10
326.7684860159793
 20
-720.961173287333
 30
0.0
 11
329.2684860159793
 21
-720.961173287333
 31
0.0
  0
LINE
  5
34A
330
2
100
AcDbEntity
  8
Object
 48
0.5
370
    30
100
AcDbLine
 10
327.7684860159792
 20
-720.6611732873332
 30
0.0
 11
326.7684860159793
 21
-720.6611732873332
 31
0.0
  0
LINE
  5
34B
330
2
100
AcDbEntity
  8
Object
 48
2.0
370
    30
100
AcDbLine
 10
326.7684860159793
 20
-715.961173287333
 30
0.0
 11
326.7684860159793
 21
-720.961173287333
 31
0.0
  0
ARC
  5
34C
330
2
100
AcDbEntity
  8
Object
 48
2.0
370
    30
100
AcDbCircle
 10
327.7684860159792
 20
-717.2611732873332
 30
0.0
 40
1.0
100
AcDbArc
 50
0.0
 51
90.0
  0
ARC
  5
34D
330
2
100
AcDbEntity
  8
Object
 48
0.5
370
    30
100
AcDbCircle
 10
327.7684860159792
 20
-719.6611732873332
 30
0.0
 40
1.0
100
AcDbArc
 50
270.0
 51
0.0
  0
LINE
  5
34E
330
2
100
AcDbEntity
  8
Object
 48
0.5
100
AcDbLine
 10
329.2684860159797
 20
-720.961173287333
 30
0.0
 11
329.2684860159797
 21
-720.3611732873317
 31
0.0
  0
LINE
  5
34F
330
2
100
AcDbEntity
  8
Object
 48
2.0
370
    30
100
AcDbLine
 10
328.7684860159793
 20
-717.2611732873332
 30
0.0
 11
328.7684860159793
 21
-719.6611732873332
 31
0.0
  0
LINE
  5
350
330
2
100
AcDbEntity
  8
Object
 48
0.5
100
AcDbLine
 10
329.4684860159796
 20
-720.961173287333
 30
0.0
 11
329.4684860159796
 21
-716.3611732873333
 31
0.0
  0
ARC
  5
351
330
2
100
AcDbEntity
  8
Text
 48
0.5
100
AcDbCircle
 10
327.0684860159793
 20
-685.6511732873331
 30
0.0
 40
1.0
100
AcDbArc
 50
90.0
 51
180.0000000000036
  0
LINE
  5
352
330
2
100
AcDbEntity
  8
Text
 48
0.5
100
AcDbLine
 10
329.2684860159793
 20
-681.9911732873336
 30
0.0
 11
326.0684860159793
 21
-681.9911732873337
 31
0.0
  0
LINE
  5
353
330
2
100
AcDbEntity
  8
Object
 48
0.5
370
    30
100
AcDbLine
 10
327.7684860159792
 20
-693.2611732873332
 30
0.0
 11
326.7684860159793
 21
-693.2611732873332
 31
0.0
  0
LINE
  5
354
330
2
100
AcDbEntity
  8
Object
 48
0.5
370
    30
100
AcDbLine
 10
329.2684860159793
 20
-697.9611732873332
 30
0.0
 11
326.7684860159793
 21
-697.9611732873332
 31
0.0
  0
LINE
  5
355
330
2
100
AcDbEntity
  8
Object
 48
0.5
370
    30
100
AcDbLine
 10
327.7684860159792
 20
-697.6611732873331
 30
0.0
 11
326.7684860159793
 21
-697.6611732873331
 31
0.0
  0
LINE
  5
356
330
2
100
AcDbEntity
  8
Object
 48
0.5
370
    30
100
AcDbLine
 10
325.2684860159793
 20
-691.961173287333
 30
0.0
 11
325.2684860159793
 21
-691.961173287333
 31
0.0
  0
LINE
  5
357
330
2
100
AcDbEntity
  8
Text
 48
0.5
100
AcDbLine
 10
326.0684860159798
 20
-691.9611732873317
 30
0.0
 11
326.0684860159793
 21
-685.6511732873332
 31
0.0
  0
LINE
  5
358
330
2
100
AcDbEntity
  8
Object
 48
2.0
370
    30
100
AcDbLine
 10
326.7684860159793
 20
-692.9611732873332
 30
0.0
 11
326.7684860159793
 21
-697.9611732873332
 31
0.0
  0
ARC
  5
359
330
2
100
AcDbEntity
  8
Object
 48
0.5
370
    30
100
AcDbCircle
 10
328.7684860159793
 20
-692.461173287333
 30
0.0
 40
0.5
100
AcDbArc
 50
0.0
 51
90.0
  0
ARC
  5
35A
330
2
100
AcDbEntity
  8
Object
 48
2.0
370
    30
100
AcDbCircle
 10
327.7684860159792
 20
-694.2611732873332
 30
0.0
 40
1.0
100
AcDbArc
 50
0.0
 51
90.0
  0
LINE
  5
35B
330
2
100
AcDbEntity
  8
Text
 48
0.5
100
AcDbLine
 10
329.2684860159793
 20
-684.6511732873331
 30
0.0
 11
327.0684860159793
 21
-684.6511732873331
 31
0.0
  0
ARC
  5
35C
330
2
100
AcDbEntity
  8
Object
 48
0.5
370
    30
100
AcDbCircle
 10
327.7684860159792
 20
-696.6611732873332
 30
0.0
 40
1.0
100
AcDbArc
 50
270.0
 51
0.0
  0
LINE
  5
35D
330
2
100
AcDbEntity
  8
Object
 48
2.0
370
    30
100
AcDbLine
 10
328.7684860159793
 20
-694.2611732873332
 30
0.0
 11
328.7684860159793
 21
-696.6611732873332
 31
0.0
  0
ARC
  5
35E
330
2
100
AcDbEntity
  8
Object
 48
0.5
100
AcDbCircle
 10
334.7684860159799
 20
-714.8611732873336
 30
0.0
 40
2.25
100
AcDbArc
 50
162.8395884068958
 51
197.1604115930773
  0
ARC
  5
35F
330
2
100
AcDbEntity
  8
Object
 48
0.5
100
AcDbCircle
 10
331.4162817419557
 20
-716.7965693273198
 30
0.0
 40
1.75
100
AcDbArc
 50
13.39845040098072
 51
46.60154959902614
  0
ARC
  5
360
330
2
100
AcDbEntity
  8
Object
 48
0.5
100
AcDbCircle
 10
331.4162817419557
 20
-712.9257772473471
 30
0.0
 40
1.75
100
AcDbArc
 50
313.3984504009738
 51
346.6015495990191
  0
ARC
  5
361
330
2
100
AcDbEntity
  8
Object
 48
0.5
100
AcDbCircle
 10
334.7684860159799
 20
-714.8611732873336
 30
0.0
 40
2.25
100
AcDbArc
 50
102.8395884069012
 51
137.1604115930959
  0
ARC
  5
362
330
2
100
AcDbEntity
  8
Object
 48
0.5
100
AcDbCircle
 10
334.7684860159799
 20
-714.8611732873336
 30
0.0
 40
2.25
100
AcDbArc
 50
222.839588406911
 51
257.1604115930859
  0
LINE
  5
39B
330
2
100
AcDbEntity
  8
Object
100
AcDbLine
 10
347.8184860159805
 20
-674.8611732873317
 30
0.0
 11
347.8184860159805
 21
-720.3611732873317
 31
0.0
  0
LINE
  5
39C
330
2
100
AcDbEntity
  8
Object
100
AcDbLine
 10
347.8184860159805
 20
-670.6611732873317
 30
0.0
 11
347.8184860159805
 21
-720.3611732873317
 31
0.0
  0
ARC
  5
39D
330
2
100
AcDbEntity
  8
Object
 48
0.5
100
AcDbCircle
 10
334.7684860159799
 20
-714.8611732873336
 30
0.0
 40
2.25
100
AcDbArc
 50
342.8395884069153
 51
17.16041159307737
  0
ARC
  5
39E
330
2
100
AcDbEntity
  8
Object
 48
0.5
100
AcDbCircle
 10
338.1206902900038
 20
-712.9257772473474
 30
0.0
 40
1.75
100
AcDbArc
 50
193.3984504009806
 51
226.6015495990261
  0
ARC
  5
39F
330
2
100
AcDbEntity
  8
Object
 48
0.5
100
AcDbCircle
 10
338.1206902900034
 20
-716.7965693273202
 30
0.0
 40
1.75
100
AcDbArc
 50
133.3984504009737
 51
166.6015495990192
  0
ARC
  5
3A0
330
2
100
AcDbEntity
  8
Object
 48
0.5
100
AcDbCircle
 10
334.7684860159799
 20
-714.8611732873336
 30
0.0
 40
2.25
100
AcDbArc
 50
282.8395884069011
 51
317.1604115930727
  0
ARC
  5
3A1
330
2
100
AcDbEntity
  8
Object
 48
0.5
100
AcDbCircle
 10
334.7684860159799
 20
-714.8611732873336
 30
0.0
 40
2.25
100
AcDbArc
 50
42.83958840691805
 51
77.16041159309874
  0
LINE
  5
3A2
330
2
100
AcDbEntity
  8
Object
100
AcDbLine
 10
337.2184860159801
 20
-720.9611732873317
 30
0.0
 11
337.2184860159801
 21
-720.3611732873317
 31
0.0
  0
LINE
  5
3A3
330
2
100
AcDbEntity
  8
Object
100
AcDbLine
 10
336.2184860159802
 20
-720.9611732873317
 30
0.0
 11
336.2184860159802
 21
-720.3611732873317
 31
0.0
  0
ARC
  5
3A4
330
2
100
AcDbEntity
  8
Object
100
AcDbCircle
 10
348.6184860159803
 20
-720.1611732873317
 30
0.0
 40
0.8
100
AcDbArc
 50
180.0
 51
270.0
  0
POINT
  5
3A5
330
2
100
AcDbEntity
  8
Center
 48
0.2
100
AcDbPoint
 10
347.8184860159801
 20
-706.9611732873316
 30
0.0
  0
POINT
  5
3A6
330
2
100
AcDbEntity
  8
Center
 48
0.2
100
AcDbPoint
 10
347.8184860159801
 20
-706.9611732873316
 30
0.0
  0
POINT
  5
3A7
330
2
100
AcDbEntity
  8
Center
 48
0.2
100
AcDbPoint
 10
347.8184860159803
 20
-706.9611732873316
 30
0.0
  0
ARC
  5
3A8
330
2
100
AcDbEntity
  8
Object
 48
0.5
100
AcDbCircle
 10
347.2184860159801
 20
-720.3611732873317
 30
0.0
 40
0.6
100
AcDbArc
 50
270.0
 51
0.0
  0
LINE
  5
3BB
330
2
100
AcDbEntity
  8
Object
 48
0.5
100
AcDbLine
 10
345.8684860159801
 20
-674.2611732873317
 30
0.0
 11
340.5684860159801
 21
-674.2611732873317
 31
0.0
  0
LINE
  5
3BD
330
2
100
AcDbEntity
  8
Object
 48
0.5
100
AcDbLine
 10
335.4684860159792
 20
-675.4611732873325
 30
0.0
 11
347.8184860159805
 21
-675.461173287332
 31
0.0
  0
LINE
  5
3BE
330
2
100
AcDbEntity
  8
Object
 48
0.5
100
AcDbLine
 10
338.2184860159802
 20
-674.8611732873321
 30
0.0
 11
347.8184860159805
 21
-674.8611732873317
 31
0.0
  0
LINE
  5
3BF
330
2
100
AcDbEntity
  8
Object
 48
0.5
100
AcDbLine
 10
340.5684860159801
 20
-674.861173287332
 30
0.0
 11
345.86848601598
 21
-674.861173287332
 31
0.0
  0
LINE
  5
3C1
330
2
100
AcDbEntity
  8
Object
100
AcDbLine
 10
338.2184860159803
 20
-675.461173287332
 30
0.0
 11
338.2184860159802
 21
-674.8611732873317
 31
0.0
  0
LINE
  5
3C9
330
2
100
AcDbEntity
  8
画層1
 62
     0
 48
0.5
370
    30
100
AcDbLine
 10
344.4684860159838
 20
-672.5611732873318
 30
0.0
 11
341.9684860159837
 21
-672.5611732873318
 31
0.0
  0
LINE
  5
3CA
330
2
100
AcDbEntity
  8
Object
 48
0.5
100
AcDbLine
 10
342.5546281694518
 20
-673.2870792080372
 30
0.0
 11
342.5546281694518
 21
-674.2611732873317
 31
0.0
  0
ARC
  5
3CB
330
2
100
AcDbEntity
  8
Object
 48
0.5
370
    30
100
AcDbCircle
 10
341.9684860159837
 20
-673.5611732873318
 30
0.0
 40
1.0
100
AcDbArc
 50
90.0
 51
160.68962666215
  0
LINE
  5
3CC
330
2
100
AcDbEntity
  8
Object
 48
0.5
100
AcDbLine
 10
341.0247449191357
 20
-673.2304880259124
 30
0.0
 11
341.0247449191358
 21
-674.2611732873317
 31
0.0
  0
LINE
  5
3CD
330
2
100
AcDbEntity
  8
Object
 48
0.5
100
AcDbLine
 10
341.6886027656676
 20
-673.2870792080372
 30
0.0
 11
341.6886027656679
 21
-674.2611732873317
 31
0.0
  0
ARC
  5
3CE
330
2
100
AcDbEntity
  8
Object
 48
0.5
100
AcDbCircle
 10
342.1216154675598
 20
-673.2870792080372
 30
0.0
 40
0.4330127018920962
100
AcDbArc
 50
0.0
 51
180.0
  0
LINE
  5
3CF
330
2
100
AcDbEntity
  8
Object
100
AcDbLine
 10
340.5684860159801
 20
-674.861173287332
 30
0.0
 11
340.5684860159801
 21
-674.2611732873317
 31
0.0
  0
ARC
  5
3D0
330
2
100
AcDbEntity
  8
Object
 48
0.5
100
AcDbCircle
 10
344.3153565644004
 20
-673.2870792080372
 30
0.0
 40
0.4330127018920962
100
AcDbArc
 50
0.0
 51
180.0
  0
LINE
  5
3D1
330
2
100
AcDbEntity
  8
Object
 48
0.5
100
AcDbLine
 10
343.8823438625083
 20
-673.2870792080372
 30
0.0
 11
343.8823438625084
 21
-674.2611732873317
 31
0.0
  0
LINE
  5
3D2
330
2
100
AcDbEntity
  8
Object
 48
0.5
100
AcDbLine
 10
344.7483692662926
 20
-673.2870792080372
 30
0.0
 11
344.7483692662925
 21
-674.2611732873317
 31
0.0
  0
LINE
  5
3D3
330
2
100
AcDbEntity
  8
Object
 48
0.5
100
AcDbLine
 10
345.4122271128245
 20
-673.2304880259124
 30
0.0
 11
345.4122271128245
 21
-674.2611732873317
 31
0.0
  0
ARC
  5
3D4
330
2
100
AcDbEntity
  8
Object
 48
0.5
100
AcDbCircle
 10
344.4684860159838
 20
-673.5611732873318
 30
0.0
 40
1.0
100
AcDbArc
 50
19.31037333911272
 51
90.0
  0
LINE
  5
3DC
330
2
100
AcDbEntity
  8
Object
100
AcDbLine
 10
355.8184860159805
 20
-669.8611732873314
 30
0.0
 11
348.6184860159803
 21
-669.8611732873318
 31
0.0
  0
ARC
  5
3DD
330
2
100
AcDbEntity
  8
Object
100
AcDbCircle
 10
348.6184860159803
 20
-670.6611732873317
 30
0.0
 40
0.8
100
AcDbArc
 50
90.0
 51
180.0
  0
LINE
  5
3DE
330
2
100
AcDbEntity
  8
Object
100
AcDbLine
 10
345.86848601598
 20
-674.861173287332
 30
0.0
 11
345.8684860159801
 21
-674.2611732873317
 31
0.0
  0
LINE
  5
3E0
330
2
100
AcDbEntity
  8
Dims
100
AcDbLine
 10
355.6184860159806
 20
-668.6611732873318
 30
0.0
 11
355.6184860159806
 21
-669.8611732873314
 31
0.0
  0
LINE
  5
46F
330
2
100
AcDbEntity
  8
Object
 48
0.5
100
AcDbLine
 10
364.4184860159803
 20
-677.7111732873342
 30
0.0
 11
364.4184860159803
 21
-683.011173287334
 31
0.0
  0
LINE
  5
470
330
2
100
AcDbEntity
  8
Object
 48
0.5
100
AcDbLine
 10
365.0184860159806
 20
-683.0111732873341
 30
0.0
 11
365.0184860159806
 21
-677.7111732873342
 31
0.0
  0
LINE
  5
471
330
2
100
AcDbEntity
  8
画層1
 62
     0
 48
0.5
370
    30
100
AcDbLine
 10
366.7184860159803
 20
-681.6111732873377
 30
0.0
 11
366.7184860159803
 21
-679.1111732873376
 31
0.0
  0
LINE
  5
472
330
2
100
AcDbEntity
  8
Object
100
AcDbLine
 10
363.6184860159807
 20
-677.2611732873301
 30
0.0
 11
363.6184860159809
 21
-719.9611732873314
 31
0.0
  0
DIMENSION
  5
473
330
2
100
AcDbEntity
  8
Dims
 48
0.5
100
AcDbDimension
  2
*D19
 10
374.5089032518865
 20
-720.9611732873317
 30
0.0
 11
372.6339032518865
 21
-694.8111732873317
 31
0.0
 70
     1
  1
（53）
 71
     5
 42
52.29999999999972
  3
STANDARD
100
AcDbAlignedDimension
 13
359.8184860159808
 23
-668.6611732873318
 33
0.0
 14
359.8184860159808
 24
-720.9611732873317
 34
0.0
1001
ACAD
1000
DSTYLE
1002
{
1070
    41
1040
2.5
1070
    42
1040
0.625
1070
    43
1040
3.75
1070
    44
1040
1.25
1070
    73
1070
     0
1070
    74
1070
     0
1070
    77
1070
     1
1070
    78
1070
     8
1070
   140
1040
2.5
1070
   141
1040
2.5
1070
   143
1040
0.0394
1070
   147
1040
0.625
1070
   171
1070
     4
1070
   172
1070
     1
1070
   273
1070
     8
1070
   274
1070
     4
1070
   277
1070
     6
1002
}
  0
LINE
  5
480
330
2
100
AcDbEntity
  8
Object
100
AcDbLine
 10
364.4184860159803
 20
-670.661173287334
 30
0.0
 11
364.4184860159803
 21
-720.1611732873336
 31
0.0
  0
LINE
  5
481
330
2
100
AcDbEntity
  8
Object
100
AcDbLine
 10
362.6184860159809
 20
-720.9611732873317
 30
0.0
 11
361.1684860159811
 21
-720.9611732873313
 31
0.0
  0
CIRCLE
  5
482
330
2
100
AcDbEntity
  8
Object
100
AcDbCircle
 10
359.6184860159805
 20
-719.1611732873297
 30
0.0
 40
1.0
  0
ARC
  5
483
330
2
100
AcDbEntity
  8
Object
100
AcDbCircle
 10
359.6184860159805
 20
-719.1611732873297
 30
0.0
 40
1.05
100
AcDbArc
 50
0.0
 51
180.0
  0
LINE
  5
484
330
2
100
AcDbEntity
  8
Object
100
AcDbLine
 10
358.0684860159806
 20
-720.9611732873304
 30
0.0
 11
358.5684860159807
 21
-720.4611732873304
 31
0.0
  0
LINE
  5
485
330
2
100
AcDbEntity
  8
Object
100
AcDbLine
 10
358.5684860159807
 20
-719.1611732873297
 30
0.0
 11
358.5684860159807
 21
-720.4611732873304
 31
0.0
  0
LINE
  5
486
330
2
100
AcDbEntity
  8
Object
100
AcDbLine
 10
360.6684860159806
 20
-719.1611732873297
 30
0.0
 11
360.6684860159806
 21
-720.4611732873307
 31
0.0
  0
LINE
  5
487
330
2
100
AcDbEntity
  8
Object
100
AcDbLine
 10
360.6684860159806
 20
-720.4611732873307
 30
0.0
 11
361.1684860159805
 21
-720.9611732873309
 31
0.0
  0
LINE
  5
488
330
2
100
AcDbEntity
  8
Object
 48
0.2
100
AcDbLine
 10
364.4184860159807
 20
-710.6838929065705
 30
0.0
 11
365.0184860159806
 21
-710.3611732873316
 31
0.0
  0
LINE
  5
489
330
2
100
AcDbEntity
  8
Object
 48
0.2
100
AcDbLine
 10
364.4184860159807
 20
-710.3611732873316
 30
0.0
 11
365.0184860159806
 21
-710.0384536680927
 31
0.0
  0
LWPOLYLINE
  5
48A
330
2
100
AcDbEntity
  8
Object
100
AcDbPolyline
 90
        4
 70
     1
 43
0.0
 10
364.4184860159807
 20
-712.8611732873316
 10
364.4184860159807
 20
-707.8611732873317
 10
365.0184860159806
 20
-707.8611732873317
 10
365.0184860159806
 20
-712.8611732873316
  0
LINE
  5
48B
330
2
100
AcDbEntity
  8
Object
100
AcDbLine
 10
364.4184860159807
 20
-713.0111732873317
 30
0.0
 11
365.0184860159809
 21
-713.0111732873317
 31
0.0
  0
LINE
  5
48C
330
2
100
AcDbEntity
  8
Object
100
AcDbLine
 10
364.4184860159807
 20
-707.7111732873317
 30
0.0
 11
365.0184860159809
 21
-707.7111732873317
 31
0.0
  0
LINE
  5
48D
330
2
100
AcDbEntity
  8
Object
 48
0.5
100
AcDbLine
 10
364.4184860159807
 20
-707.7111732873317
 30
0.0
 11
364.4184860159807
 21
-713.0111732873317
 31
0.0
  0
LINE
  5
48E
330
2
100
AcDbEntity
  8
Object
100
AcDbLine
 10
362.6184860159809
 20
-720.9611732873317
 30
0.0
 11
363.6184860159809
 21
-719.9611732873316
 31
0.0
  0
ARC
  5
48F
330
2
100
AcDbEntity
  8
Object
100
AcDbCircle
 10
363.6184860159807
 20
-720.1611732873336
 30
0.0
 40
0.8
100
AcDbArc
 50
270.0
 51
0.0
  0
LINE
  5
490
330
2
100
AcDbEntity
  8
Object
 48
0.5
100
AcDbLine
 10
365.9925800952751
 20
-711.0250311338601
 30
0.0
 11
365.0184860159808
 21
-711.0250311338603
 31
0.0
  0
LINE
  5
491
330
2
100
AcDbEntity
  8
Object
 48
0.5
100
AcDbLine
 10
365.9925800952751
 20
-711.8910565376442
 30
0.0
 11
365.0184860159808
 21
-711.8910565376442
 31
0.0
  0
LINE
  5
492
330
2
100
AcDbEntity
  8
Object
 48
0.5
100
AcDbLine
 10
366.0491712774001
 20
-712.5549143841761
 30
0.0
 11
365.0184860159808
 21
-712.5549143841761
 31
0.0
  0
LINE
  5
493
330
2
100
AcDbEntity
  8
Object
 48
0.5
100
AcDbLine
 10
365.9925800952751
 20
-709.6973154408036
 30
0.0
 11
365.0184860159808
 21
-709.6973154408035
 31
0.0
  0
LINE
  5
494
330
2
100
AcDbEntity
  8
Object
 48
0.5
100
AcDbLine
 10
365.9925800952751
 20
-708.8312900370193
 30
0.0
 11
365.0184860159808
 21
-708.8312900370197
 31
0.0
  0
LINE
  5
495
330
2
100
AcDbEntity
  8
Object
 48
0.5
100
AcDbLine
 10
366.0491712774001
 20
-708.1674321904873
 30
0.0
 11
365.0184860159808
 21
-708.1674321904877
 31
0.0
  0
LINE
  5
496
330
2
100
AcDbEntity
  8
Object
 48
0.5
100
AcDbLine
 10
365.0184860159809
 20
-713.0111732873317
 30
0.0
 11
365.0184860159809
 21
-707.7111732873317
 31
0.0
  0
ARC
  5
497
330
2
100
AcDbEntity
  8
Object
 48
0.5
100
AcDbCircle
 10
365.9925800952751
 20
-711.4580438357521
 30
0.0
 40
0.4330127018920962
100
AcDbArc
 50
270.0
 51
90.0
  0
LINE
  5
498
330
2
100
AcDbEntity
  8
画層1
 62
     0
 48
0.5
370
    30
100
AcDbLine
 10
366.7184860159806
 20
-711.6111732873355
 30
0.0
 11
366.7184860159806
 21
-709.1111732873355
 31
0.0
  0
ARC
  5
499
330
2
100
AcDbEntity
  8
Object
 48
0.5
100
AcDbCircle
 10
365.9925800952751
 20
-709.2643027389116
 30
0.0
 40
0.4330127018920962
100
AcDbArc
 50
270.0
 51
90.0
  0
LWPOLYLINE
  5
49A
330
2
100
AcDbEntity
  8
Object
100
AcDbPolyline
 90
        6
 70
     1
 43
0.0
 10
365.0184860159806
 20
-712.6111732873316
 10
365.0184860159806
 20
-708.1111732873316
 10
365.7184860159806
 20
-708.1111732873316
 42
-0.4142135623730951
 10
366.7184860159806
 20
-709.1111732873316
 10
366.7184860159806
 20
-711.6111732873316
 42
-0.4142135623730951
 10
365.7184860159806
 20
-712.6111732873316
  0
ARC
  5
49B
330
2
100
AcDbEntity
  8
Object
 48
0.5
100
AcDbCircle
 10
365.7184860159806
 20
-711.6111732873355
 30
0.0
 40
1.0
100
AcDbArc
 50
289.3103733391096
 51
0.0
  0
ARC
  5
49C
330
2
100
AcDbEntity
  8
Object
 48
0.5
370
    30
100
AcDbCircle
 10
365.7184860159806
 20
-709.1111732873355
 30
0.0
 40
1.0
100
AcDbArc
 50
0.0
 51
70.68962666215006
  0
LINE
  5
49D
330
2
100
AcDbEntity
  8
Object
100
AcDbLine
 10
364.4184860159803
 20
-683.011173287334
 30
0.0
 11
365.0184860159806
 21
-683.0111732873341
 31
0.0
  0
LINE
  5
49E
330
2
100
AcDbEntity
  8
Object
 48
0.5
100
AcDbLine
 10
365.9925800952748
 20
-681.0250311338624
 30
0.0
 11
365.0184860159805
 21
-681.0250311338625
 31
0.0
  0
LINE
  5
49F
330
2
100
AcDbEntity
  8
Object
 48
0.5
100
AcDbLine
 10
365.9925800952748
 20
-681.8910565376466
 30
0.0
 11
365.0184860159805
 21
-681.8910565376463
 31
0.0
  0
LINE
  5
4A0
330
2
100
AcDbEntity
  8
Object
 48
0.5
100
AcDbLine
 10
366.0491712773997
 20
-682.5549143841786
 30
0.0
 11
365.0184860159805
 21
-682.5549143841783
 31
0.0
  0
ARC
  5
4A1
330
2
100
AcDbEntity
  8
Object
 48
0.5
100
AcDbCircle
 10
365.9925800952748
 20
-681.4580438357544
 30
0.0
 40
0.4330127018920962
100
AcDbArc
 50
270.0
 51
90.0
  0
ARC
  5
4A2
330
2
100
AcDbEntity
  8
Object
 48
0.5
100
AcDbCircle
 10
365.7184860159805
 20
-681.6111732873377
 30
0.0
 40
1.0
100
AcDbArc
 50
289.3103733391096
 51
0.0
  0
LINE
  5
4A9
330
2
100
AcDbEntity
  8
Object
100
AcDbLine
 10
361.8684860159813
 20
-673.4611732873299
 30
0.0
 11
362.6184860159809
 21
-673.4611732873299
 31
0.0
  0
LINE
  5
4AC
330
2
100
AcDbEntity
  8
Object
100
AcDbLine
 10
361.8684860159802
 20
-676.2611732873296
 30
0.0
 11
362.6184860159805
 21
-676.2611732873296
 31
0.0
  0
CIRCLE
  5
4AD
330
2
100
AcDbEntity
  8
Object
 48
0.5
100
AcDbCircle
 10
359.6184860159805
 20
-674.861173287329
 30
0.0
 40
2.649999999999999
  0
ARC
  5
4AE
330
2
100
AcDbEntity
  8
Object
 48
0.5
100
AcDbCircle
 10
359.6184860159805
 20
-670.9903812073562
 30
0.0
 40
1.75
100
AcDbArc
 50
253.3984504009766
 51
286.6015495990233
  0
LINE
  5
4AF
330
2
100
AcDbEntity
  8
Dims
100
AcDbLine
 10
359.8184860159808
 20
-668.9111732873318
 30
0.0
 11
356.7184860159806
 21
-668.9111732873317
 31
0.0
  0
ARC
  5
4B0
330
2
100
AcDbEntity
  8
Object
 48
0.5
100
AcDbCircle
 10
359.6184860159801
 20
-678.7319653673018
 30
0.0
 40
1.75
100
AcDbArc
 50
73.39845040097656
 51
106.6015495990233
  0
ARC
  5
4B1
330
2
100
AcDbEntity
  8
Object
 48
0.5
100
AcDbCircle
 10
359.6184860159805
 20
-674.861173287329
 30
0.0
 40
2.25
100
AcDbArc
 50
102.8395884069012
 51
137.1604115930959
  0
LINE
  5
4B2
330
2
100
AcDbEntity
  8
Dims
100
AcDbLine
 10
356.7184860159806
 20
-668.9111732873317
 30
0.0
 11
356.7184860159806
 21
-669.8611732873337
 31
0.0
  0
ARC
  5
4B3
330
2
100
AcDbEntity
  8
Object
 48
0.5
100
AcDbCircle
 10
356.2662817419564
 20
-672.9257772473423
 30
0.0
 40
1.75
100
AcDbArc
 50
313.3984504009738
 51
346.6015495990191
  0
ARC
  5
4B4
330
2
100
AcDbEntity
  8
Object
 48
0.5
100
AcDbCircle
 10
359.6184860159805
 20
-674.861173287329
 30
0.0
 40
2.25
100
AcDbArc
 50
222.839588406911
 51
257.1604115930859
  0
ARC
  5
4B5
330
2
100
AcDbEntity
  8
Object
 48
0.5
100
AcDbCircle
 10
356.2662817419564
 20
-676.7965693273152
 30
0.0
 40
1.75
100
AcDbArc
 50
13.39845040098072
 51
46.60154959902614
  0
ARC
  5
4B6
330
2
100
AcDbEntity
  8
Object
 48
0.5
100
AcDbCircle
 10
359.6184860159805
 20
-674.861173287329
 30
0.0
 40
2.25
100
AcDbArc
 50
162.8395884068958
 51
197.1604115930773
  0
ARC
  5
4B7
330
2
100
AcDbEntity
  8
Object
 48
0.5
100
AcDbCircle
 10
362.9706902900045
 20
-672.9257772473427
 30
0.0
 40
1.75
100
AcDbArc
 50
193.3984504009806
 51
226.6015495990261
  0
LINE
  5
4B8
330
2
100
AcDbEntity
  8
Dims
100
AcDbLine
 10
359.8184860159808
 20
-668.6611732873318
 30
0.0
 11
359.8184860159808
 21
-669.8611732873339
 31
0.0
  0
ARC
  5
4B9
330
2
100
AcDbEntity
  8
Object
 48
0.5
100
AcDbCircle
 10
359.6184860159805
 20
-674.861173287329
 30
0.0
 40
2.25
100
AcDbArc
 50
42.83958840691805
 51
77.16041159309874
  0
ARC
  5
4BA
330
2
100
AcDbEntity
  8
Object
 48
0.5
100
AcDbCircle
 10
362.9706902900041
 20
-676.7965693273157
 30
0.0
 40
1.75
100
AcDbArc
 50
133.3984504009737
 51
166.6015495990192
  0
ARC
  5
4BB
330
2
100
AcDbEntity
  8
Object
 48
0.5
100
AcDbCircle
 10
359.6184860159805
 20
-674.861173287329
 30
0.0
 40
2.25
100
AcDbArc
 50
282.8395884069011
 51
317.1604115930727
  0
ARC
  5
4BC
330
2
100
AcDbEntity
  8
Object
 48
0.5
100
AcDbCircle
 10
359.6184860159805
 20
-674.861173287329
 30
0.0
 40
2.25
100
AcDbArc
 50
342.8395884069153
 51
17.16041159307737
  0
LINE
  5
4FA
330
2
100
AcDbEntity
  8
Object
100
AcDbLine
 10
364.4184860159803
 20
-677.7111732873342
 30
0.0
 11
365.0184860159806
 21
-677.7111732873342
 31
0.0
  0
LINE
  5
4FB
330
2
100
AcDbEntity
  8
Object
100
AcDbLine
 10
362.6184860159805
 20
-673.4611732873299
 30
0.0
 11
363.6184860159807
 21
-672.4611732873301
 31
0.0
  0
LINE
  5
4FC
330
2
100
AcDbEntity
  8
Object
100
AcDbLine
 10
362.6184860159805
 20
-669.8611732873303
 30
0.0
 11
363.6184860159807
 21
-670.8611732873301
 31
0.0
  0
LINE
  5
4FD
330
2
100
AcDbEntity
  8
Object
100
AcDbLine
 10
363.6184860159807
 20
-670.8611732873301
 30
0.0
 11
363.6184860159807
 21
-672.4611732873299
 31
0.0
  0
ARC
  5
4FE
330
2
100
AcDbEntity
  8
Object
100
AcDbCircle
 10
363.6184860159803
 20
-670.661173287334
 30
0.0
 40
0.8
100
AcDbArc
 50
0.0
 51
90.0
  0
LINE
  5
4FF
330
2
100
AcDbEntity
  8
Object
100
AcDbLine
 10
362.6184860159805
 20
-676.2611732873296
 30
0.0
 11
363.6184860159807
 21
-677.2611732873297
 31
0.0
  0
LINE
  5
500
330
2
100
AcDbEntity
  8
Object
 48
0.5
100
AcDbLine
 10
365.9925800952748
 20
-679.6973154408059
 30
0.0
 11
365.0184860159805
 21
-679.6973154408057
 31
0.0
  0
LINE
  5
501
330
2
100
AcDbEntity
  8
Object
 48
0.5
100
AcDbLine
 10
365.9925800952748
 20
-678.8312900370217
 30
0.0
 11
365.0184860159805
 21
-678.8312900370217
 31
0.0
  0
LINE
  5
502
330
2
100
AcDbEntity
  8
Object
 48
0.5
100
AcDbLine
 10
366.0491712773997
 20
-678.1674321904898
 30
0.0
 11
365.0184860159805
 21
-678.1674321904898
 31
0.0
  0
ARC
  5
503
330
2
100
AcDbEntity
  8
Object
 48
0.5
100
AcDbCircle
 10
365.9925800952748
 20
-679.2643027389137
 30
0.0
 40
0.4330127018920962
100
AcDbArc
 50
270.0
 51
90.0
  0
ARC
  5
504
330
2
100
AcDbEntity
  8
Object
 48
0.5
370
    30
100
AcDbCircle
 10
365.7184860159805
 20
-679.1111732873376
 30
0.0
 40
1.0
100
AcDbArc
 50
0.0
 51
70.68962666215006
  0
ARC
  5
5F1
330
2
100
AcDbEntity
  8
Object
 48
0.5
100
AcDbCircle
 10
396.2736777605593
 20
-680.3611732873331
 30
0.0
 40
2.25
100
AcDbArc
 50
342.8395884069153
 51
17.16041159307737
  0
ARC
  5
5F2
330
2
100
AcDbEntity
  8
Object
 48
0.5
100
AcDbCircle
 10
396.2736777605593
 20
-680.3611732873331
 30
0.0
 40
2.25
100
AcDbArc
 50
162.8395884068958
 51
197.1604115930773
  0
CIRCLE
  5
5F3
330
2
100
AcDbEntity
  8
Object
 48
0.5
100
AcDbCircle
 10
396.2736777605593
 20
-680.3611732873331
 30
0.0
 40
2.649999999999999
  0
DIMENSION
  5
5F4
330
2
100
AcDbEntity
  8
Dims
 48
0.5
100
AcDbDimension
  2
*D17
 10
388.0858776050954
 20
-720.961173287333
 30
0.0
 11
385.5561157003336
 21
-695.4111732873331
 31
0.0
 70
     1
  1
(51)
 71
     5
 42
51.0999999999999
  3
STANDARD
100
AcDbAlignedDimension
 13
391.9736777605596
 23
-669.8611732873332
 33
0.0
 14
391.9736777605596
 24
-720.961173287333
 34
0.0
1001
ACAD
1000
DSTYLE
1002
{
1070
    41
1040
2.5
1070
    42
1040
0.625
1070
    43
1040
3.75
1070
    44
1040
1.25
1070
    73
1070
     0
1070
    74
1070
     0
1070
    77
1070
     1
1070
    78
1070
     8
1070
   140
1040
2.5
1070
   141
1040
2.5
1070
   143
1040
0.0394
1070
   147
1040
0.625
1070
   171
1070
     4
1070
   172
1070
     1
1070
   273
1070
     8
1070
   274
1070
     4
1070
   277
1070
     6
1002
}
  0
LINE
  5
601
330
2
100
AcDbEntity
  8
Object
100
AcDbLine
 10
392.9736777605603
 20
-720.9611732873317
 30
0.0
 11
392.9736777605604
 21
-669.8611732873318
 31
0.0
  0
ARC
  5
602
330
2
100
AcDbEntity
  8
Object
 48
0.5
100
AcDbCircle
 10
392.9214734865351
 20
-682.2965693273191
 30
0.0
 40
1.75
100
AcDbArc
 50
13.39845040098072
 51
46.60154959902614
  0
LINE
  5
603
330
2
100
AcDbEntity
  8
Center
 48
0.5
100
AcDbLine
 10
390.9736777605596
 20
-719.1611732873297
 30
0.0
 11
393.7736777605596
 21
-719.1611732873297
 31
0.0
  0
ARC
  5
604
330
2
100
AcDbEntity
  8
Object
 48
0.5
100
AcDbCircle
 10
396.2736777605593
 20
-680.3611732873331
 30
0.0
 40
2.25
100
AcDbArc
 50
282.8395884069011
 51
317.1604115930727
  0
ARC
  5
605
330
2
100
AcDbEntity
  8
Object
 48
0.5
100
AcDbCircle
 10
396.2736777605593
 20
-680.3611732873331
 30
0.0
 40
2.25
100
AcDbArc
 50
222.839588406911
 51
257.1604115930859
  0
ARC
  5
606
330
2
100
AcDbEntity
  8
Object
 48
0.5
100
AcDbCircle
 10
396.2736777605588
 20
-684.2319653673058
 30
0.0
 40
1.75
100
AcDbArc
 50
73.39845040097656
 51
106.6015495990233
  0
ARC
  5
607
330
2
100
AcDbEntity
  8
Object
 48
0.5
100
AcDbCircle
 10
399.6258820345828
 20
-682.2965693273197
 30
0.0
 40
1.75
100
AcDbArc
 50
133.3984504009737
 51
166.6015495990192
  0
ARC
  5
608
330
2
100
AcDbEntity
  8
Object
 48
0.5
100
AcDbCircle
 10
392.9214734865351
 20
-678.4257772473464
 30
0.0
 40
1.75
100
AcDbArc
 50
313.3984504009738
 51
346.6015495990191
  0
LINE
  5
609
330
2
100
AcDbEntity
  8
Object
100
AcDbLine
 10
391.9736777605604
 20
-672.211173287332
 30
0.0
 11
391.3736777605601
 21
-672.211173287332
 31
0.0
  0
LINE
  5
60A
330
2
100
AcDbEntity
  8
Object
100
AcDbLine
 10
391.9736777605604
 20
-677.5111732873319
 30
0.0
 11
391.3736777605601
 21
-677.511173287332
 31
0.0
  0
ARC
  5
60B
330
2
100
AcDbEntity
  8
Object
 48
0.5
370
    30
100
AcDbCircle
 10
390.6736777605603
 20
-673.6111732873356
 30
0.0
 40
1.0
100
AcDbArc
 50
109.3103733378499
 51
180.0
  0
ARC
  5
60C
330
2
100
AcDbEntity
  8
Object
 48
0.5
100
AcDbCircle
 10
390.3995836812658
 20
-673.7643027389117
 30
0.0
 40
0.4330127018920962
100
AcDbArc
 50
90.0
 51
270.0
  0
LINE
  5
60D
330
2
100
AcDbEntity
  8
Object
 48
0.5
100
AcDbLine
 10
390.3995836812658
 20
-674.1973154408038
 30
0.0
 11
391.3736777605601
 21
-674.1973154408035
 31
0.0
  0
LINE
  5
60E
330
2
100
AcDbEntity
  8
Object
 48
0.5
100
AcDbLine
 10
390.3995836812658
 20
-673.3312900370195
 30
0.0
 11
391.3736777605601
 21
-673.3312900370196
 31
0.0
  0
LINE
  5
60F
330
2
100
AcDbEntity
  8
Object
 48
0.5
100
AcDbLine
 10
390.3429924991408
 20
-672.6674321904876
 30
0.0
 11
391.3736777605601
 21
-672.6674321904877
 31
0.0
  0
ARC
  5
610
330
2
100
AcDbEntity
  8
Object
 48
0.5
100
AcDbCircle
 10
390.3995836812658
 20
-675.9580438357523
 30
0.0
 40
0.4330127018920962
100
AcDbArc
 50
90.0
 51
270.0
  0
ARC
  5
611
330
2
100
AcDbEntity
  8
Object
 48
0.5
100
AcDbCircle
 10
390.6736777605603
 20
-676.1111732873356
 30
0.0
 40
1.0
100
AcDbArc
 50
180.0
 51
250.6896266608871
  0
LINE
  5
612
330
2
100
AcDbEntity
  8
Object
 48
0.5
100
AcDbLine
 10
390.3995836812658
 20
-675.5250311338602
 30
0.0
 11
391.3736777605601
 21
-675.5250311338602
 31
0.0
  0
LINE
  5
613
330
2
100
AcDbEntity
  8
Object
 48
0.5
100
AcDbLine
 10
390.3995836812658
 20
-676.3910565376443
 30
0.0
 11
391.3736777605601
 21
-676.3910565376443
 31
0.0
  0
LINE
  5
614
330
2
100
AcDbEntity
  8
Object
 48
0.5
100
AcDbLine
 10
390.3429924991408
 20
-677.0549143841764
 30
0.0
 11
391.3736777605601
 21
-677.0549143841763
 31
0.0
  0
LINE
  5
615
330
2
100
AcDbEntity
  8
Object
 48
0.5
100
AcDbLine
 10
391.3736777605601
 20
-677.511173287332
 30
0.0
 11
391.3736777605601
 21
-672.211173287332
 31
0.0
  0
LINE
  5
616
330
2
100
AcDbEntity
  8
画層1
 62
     0
 48
0.5
370
    30
100
AcDbLine
 10
389.6736777605601
 20
-676.1111732873356
 30
0.0
 11
389.6736777605601
 21
-673.6111732873356
 31
0.0
  0
LINE
  5
617
330
2
100
AcDbEntity
  8
Object
 48
0.5
100
AcDbLine
 10
391.9736777605598
 20
-672.4611732873297
 30
0.0
 11
392.7736777605596
 21
-672.4611732873297
 31
0.0
  0
LINE
  5
618
330
2
100
AcDbEntity
  8
Object
 48
0.5
100
AcDbLine
 10
391.9736777605598
 20
-673.4611732873299
 30
0.0
 11
392.7736777605596
 21
-673.4611732873299
 31
0.0
  0
LINE
  5
619
330
2
100
AcDbEntity
  8
Object
100
AcDbLine
 10
392.9736777605604
 20
-673.5611732873318
 30
0.0
 11
391.9736777605604
 21
-673.5611732873318
 31
0.0
  0
LINE
  5
61A
330
2
100
AcDbEntity
  8
Object
 48
0.5
100
AcDbLine
 10
392.9736777605605
 20
-674.0611732873318
 30
0.0
 11
391.9736777605604
 21
-674.061173287332
 31
0.0
  0
LINE
  5
61B
330
2
100
AcDbEntity
  8
Object
 48
0.5
100
AcDbLine
 10
391.9736777605598
 20
-676.2611732873295
 30
0.0
 11
392.7736777605596
 21
-676.2611732873295
 31
0.0
  0
LINE
  5
61C
330
2
100
AcDbEntity
  8
Object
 48
0.5
100
AcDbLine
 10
392.9736777605605
 20
-675.6611732873316
 30
0.0
 11
391.9736777605604
 21
-675.6611732873317
 31
0.0
  0
LINE
  5
61D
330
2
100
AcDbEntity
  8
Object
100
AcDbLine
 10
392.9736777605604
 20
-676.1611732873316
 30
0.0
 11
391.9736777605604
 21
-676.1611732873317
 31
0.0
  0
LINE
  5
61E
330
2
100
AcDbEntity
  8
Object
 48
0.5
100
AcDbLine
 10
391.9736777605598
 20
-677.2611732873298
 30
0.0
 11
392.7736777605596
 21
-677.2611732873298
 31
0.0
  0
LINE
  5
61F
330
2
100
AcDbEntity
  8
Object
 48
0.5
100
AcDbLine
 10
391.9736777605604
 20
-672.211173287332
 30
0.0
 11
391.9736777605604
 21
-677.5111732873319
 31
0.0
  0
ARC
  5
620
330
2
100
AcDbEntity
  8
Object
 48
0.5
100
AcDbCircle
 10
396.2736777605593
 20
-680.3611732873331
 30
0.0
 40
2.25
100
AcDbArc
 50
42.83958840691805
 51
77.16041159309874
  0
ARC
  5
621
330
2
100
AcDbEntity
  8
Object
 48
0.5
100
AcDbCircle
 10
396.2736777605593
 20
-680.3611732873331
 30
0.0
 40
2.25
100
AcDbArc
 50
102.8395884069012
 51
137.1604115930959
  0
ARC
  5
622
330
2
100
AcDbEntity
  8
Object
 48
0.5
100
AcDbCircle
 10
396.2736777605593
 20
-676.4903812073602
 30
0.0
 40
1.75
100
AcDbArc
 50
253.3984504009766
 51
286.6015495990233
  0
LINE
  5
623
330
2
100
AcDbEntity
  8
Dims
100
AcDbLine
 10
398.2736777605591
 20
-668.6611732873335
 30
0.0
 11
398.2736777605591
 21
-669.8611732873318
 31
0.0
  0
LINE
  5
624
330
2
100
AcDbEntity
  8
Dims
100
AcDbLine
 10
398.8736777605591
 20
-668.6611732873335
 30
0.0
 11
398.8736777605591
 21
-669.8611732873318
 31
0.0
  0
LINE
  5
625
330
2
100
AcDbEntity
  8
Dims
100
AcDbLine
 10
399.2736777605591
 20
-668.6611732873335
 30
0.0
 11
399.2736777605591
 21
-669.8611732873318
 31
0.0
  0
ARC
  5
626
330
2
100
AcDbEntity
  8
Object
 48
0.5
100
AcDbCircle
 10
399.6258820345831
 20
-678.4257772473469
 30
0.0
 40
1.75
100
AcDbArc
 50
193.3984504009806
 51
226.6015495990261
  0
LINE
  5
63E
330
2
100
AcDbEntity
  8
Dims
100
AcDbLine
 10
400.5236777605587
 20
-669.8611732873342
 30
0.0
 11
400.3736777605587
 21
-669.3611732873342
 31
0.0
  0
LINE
  5
63F
330
2
100
AcDbEntity
  8
Dims
100
AcDbLine
 10
402.5236777605588
 20
-669.8611732873342
 30
0.0
 11
402.373677760559
 21
-669.3611732873342
 31
0.0
  0
LINE
  5
640
330
2
100
AcDbEntity
  8
Dims
100
AcDbLine
 10
402.1736777605588
 20
-669.3611732873342
 30
0.0
 11
402.0236777605588
 21
-669.8611732873342
 31
0.0
  0
LINE
  5
641
330
2
100
AcDbEntity
  8
Dims
100
AcDbLine
 10
402.373677760559
 20
-669.3611732873342
 30
0.0
 11
402.1736777605588
 21
-669.3611732873342
 31
0.0
  0
LINE
  5
642
330
2
100
AcDbEntity
  8
Dims
100
AcDbLine
 10
400.1736777605588
 20
-669.3611732873342
 30
0.0
 11
400.0236777605588
 21
-669.8611732873342
 31
0.0
  0
LINE
  5
643
330
2
100
AcDbEntity
  8
Dims
100
AcDbLine
 10
400.3736777605587
 20
-669.3611732873342
 30
0.0
 11
400.1736777605588
 21
-669.3611732873342
 31
0.0
  0
LINE
  5
644
330
2
100
AcDbEntity
  8
Dims
100
AcDbLine
 10
404.3736777605587
 20
-669.3611732873339
 30
0.0
 11
404.1736777605588
 21
-669.3611732873339
 31
0.0
  0
LINE
  5
645
330
2
100
AcDbEntity
  8
Dims
100
AcDbLine
 10
404.1736777605588
 20
-669.3611732873339
 30
0.0
 11
404.0236777605588
 21
-669.8611732873339
 31
0.0
  0
LINE
  5
646
330
2
100
AcDbEntity
  8
Dims
100
AcDbLine
 10
404.5236777605587
 20
-669.8611732873339
 30
0.0
 11
404.3736777605587
 21
-669.3611732873339
 31
0.0
  0
LINE
  5
647
330
2
100
AcDbEntity
  8
Dims
100
AcDbLine
 10
408.1736777605588
 20
-669.3611732873336
 30
0.0
 11
408.0236777605588
 21
-669.8611732873337
 31
0.0
  0
LINE
  5
648
330
2
100
AcDbEntity
  8
Dims
100
AcDbLine
 10
406.3736777605588
 20
-669.3611732873339
 30
0.0
 11
406.1736777605586
 21
-669.3611732873339
 31
0.0
  0
LINE
  5
649
330
2
100
AcDbEntity
  8
Dims
100
AcDbLine
 10
406.1736777605586
 20
-669.3611732873339
 30
0.0
 11
406.0236777605588
 21
-669.8611732873339
 31
0.0
  0
LINE
  5
64A
330
2
100
AcDbEntity
  8
Dims
100
AcDbLine
 10
406.5236777605588
 20
-669.8611732873337
 30
0.0
 11
406.3736777605588
 21
-669.3611732873339
 31
0.0
  0
LINE
  5
64B
330
2
100
AcDbEntity
  8
Dims
100
AcDbLine
 10
410.3736777605588
 20
-669.3611732873335
 30
0.0
 11
410.1736777605586
 21
-669.3611732873335
 31
0.0
  0
LINE
  5
64C
330
2
100
AcDbEntity
  8
Dims
100
AcDbLine
 10
410.1736777605586
 20
-669.3611732873335
 30
0.0
 11
410.0236777605588
 21
-669.8611732873335
 31
0.0
  0
LINE
  5
64D
330
2
100
AcDbEntity
  8
Dims
100
AcDbLine
 10
410.5236777605588
 20
-669.8611732873335
 30
0.0
 11
410.3736777605588
 21
-669.3611732873335
 31
0.0
  0
LINE
  5
64E
330
2
100
AcDbEntity
  8
Dims
100
AcDbLine
 10
408.5236777605588
 20
-669.8611732873337
 30
0.0
 11
408.3736777605587
 21
-669.3611732873336
 31
0.0
  0
LINE
  5
64F
330
2
100
AcDbEntity
  8
Dims
100
AcDbLine
 10
408.3736777605587
 20
-669.3611732873336
 30
0.0
 11
408.1736777605588
 21
-669.3611732873336
 31
0.0
  0
LINE
  5
651
330
2
100
AcDbEntity
  8
Dims
100
AcDbLine
 10
416.1736777605591
 20
-669.3611732873335
 30
0.0
 11
416.3736777605593
 21
-669.3611732873335
 31
0.0
  0
LINE
  5
652
330
2
100
AcDbEntity
  8
Dims
100
AcDbLine
 10
412.0236777605591
 20
-669.8611732873335
 30
0.0
 11
412.1736777605591
 21
-669.3611732873335
 31
0.0
  0
LINE
  5
653
330
2
100
AcDbEntity
  8
Dims
100
AcDbLine
 10
412.1736777605591
 20
-669.3611732873335
 30
0.0
 11
412.3736777605593
 21
-669.3611732873335
 31
0.0
  0
LINE
  5
654
330
2
100
AcDbEntity
  8
Dims
100
AcDbLine
 10
412.3736777605593
 20
-669.3611732873335
 30
0.0
 11
412.5236777605591
 21
-669.8611732873335
 31
0.0
  0
LINE
  5
655
330
2
100
AcDbEntity
  8
Dims
100
AcDbLine
 10
416.0236777605594
 20
-669.8611732873335
 30
0.0
 11
416.1736777605591
 21
-669.3611732873335
 31
0.0
  0
LINE
  5
656
330
2
100
AcDbEntity
  8
Dims
100
AcDbLine
 10
414.1736777605591
 20
-669.3611732873335
 30
0.0
 11
414.3736777605591
 21
-669.3611732873335
 31
0.0
  0
LINE
  5
657
330
2
100
AcDbEntity
  8
Dims
100
AcDbLine
 10
414.3736777605591
 20
-669.3611732873335
 30
0.0
 11
414.5236777605593
 21
-669.8611732873335
 31
0.0
  0
LINE
  5
658
330
2
100
AcDbEntity
  8
Dims
100
AcDbLine
 10
414.0236777605593
 20
-669.8611732873335
 30
0.0
 11
414.1736777605591
 21
-669.3611732873335
 31
0.0
  0
LINE
  5
659
330
2
100
AcDbEntity
  8
Dims
100
AcDbLine
 10
416.3736777605593
 20
-669.3611732873335
 30
0.0
 11
416.5236777605594
 21
-669.8611732873335
 31
0.0
  0
LINE
  5
65A
330
2
100
AcDbEntity
  8
Dims
100
AcDbLine
 10
418.1736777605591
 20
-669.3611732873335
 30
0.0
 11
418.3736777605591
 21
-669.3611732873335
 31
0.0
  0
LINE
  5
65B
330
2
100
AcDbEntity
  8
Dims
100
AcDbLine
 10
418.3736777605591
 20
-669.3611732873335
 30
0.0
 11
418.5236777605593
 21
-669.8611732873335
 31
0.0
  0
LINE
  5
65C
330
2
100
AcDbEntity
  8
Dims
100
AcDbLine
 10
418.0236777605593
 20
-669.8611732873335
 30
0.0
 11
418.1736777605591
 21
-669.3611732873335
 31
0.0
  0
LINE
  5
65D
330
2
100
AcDbEntity
  8
Dims
100
AcDbLine
 10
420.1736777605591
 20
-669.3611732873335
 30
0.0
 11
420.3736777605593
 21
-669.3611732873335
 31
0.0
  0
LINE
  5
65E
330
2
100
AcDbEntity
  8
Dims
100
AcDbLine
 10
420.3736777605593
 20
-669.3611732873335
 30
0.0
 11
420.5236777605591
 21
-669.8611732873335
 31
0.0
  0
LINE
  5
65F
330
2
100
AcDbEntity
  8
Dims
100
AcDbLine
 10
420.0236777605591
 20
-669.8611732873335
 30
0.0
 11
420.1736777605591
 21
-669.3611732873335
 31
0.0
  0
LINE
  5
665
330
2
100
AcDbEntity
  8
Object
100
AcDbLine
 10
429.5736777605601
 20
-720.9611732873317
 30
0.0
 11
429.5736777605598
 21
-669.8611732873319
 31
0.0
  0
CIRCLE
  5
668
330
2
100
AcDbEntity
  8
Object
 48
0.5
100
AcDbCircle
 10
426.2736777605601
 20
-710.3611732873316
 30
0.0
 40
2.649999999999999
  0
ARC
  5
669
330
2
100
AcDbEntity
  8
Object
 48
0.5
100
AcDbCircle
 10
426.2736777605601
 20
-710.3611732873316
 30
0.0
 40
2.25
100
AcDbArc
 50
42.83958840691805
 51
77.16041159309874
  0
ARC
  5
66A
330
2
100
AcDbEntity
  8
Object
 48
0.5
100
AcDbCircle
 10
426.2736777605601
 20
-710.3611732873316
 30
0.0
 40
2.25
100
AcDbArc
 50
282.8395884069011
 51
317.1604115930727
  0
ARC
  5
66B
330
2
100
AcDbEntity
  8
Object
 48
0.5
100
AcDbCircle
 10
422.921473486536
 20
-708.4257772473453
 30
0.0
 40
1.75
100
AcDbArc
 50
313.3984504009738
 51
346.6015495990191
  0
ARC
  5
66C
330
2
100
AcDbEntity
  8
Object
 48
0.5
100
AcDbCircle
 10
422.921473486536
 20
-712.2965693273178
 30
0.0
 40
1.75
100
AcDbArc
 50
13.39845040098072
 51
46.60154959902614
  0
ARC
  5
66D
330
2
100
AcDbEntity
  8
Object
 48
0.5
100
AcDbCircle
 10
426.2736777605601
 20
-710.3611732873316
 30
0.0
 40
2.25
100
AcDbArc
 50
162.8395884068958
 51
197.1604115930773
  0
ARC
  5
66E
330
2
100
AcDbEntity
  8
Object
 48
0.5
100
AcDbCircle
 10
426.2736777605601
 20
-706.4903812073588
 30
0.0
 40
1.75
100
AcDbArc
 50
253.3984504009766
 51
286.6015495990233
  0
ARC
  5
66F
330
2
100
AcDbEntity
  8
Object
 48
0.5
100
AcDbCircle
 10
426.2736777605596
 20
-714.2319653673045
 30
0.0
 40
1.75
100
AcDbArc
 50
73.39845040097656
 51
106.6015495990233
  0
ARC
  5
670
330
2
100
AcDbEntity
  8
Object
 48
0.5
100
AcDbCircle
 10
426.2736777605601
 20
-710.3611732873316
 30
0.0
 40
2.25
100
AcDbArc
 50
222.839588406911
 51
257.1604115930859
  0
ARC
  5
671
330
2
100
AcDbEntity
  8
Object
 48
0.5
100
AcDbCircle
 10
426.2736777605601
 20
-710.3611732873316
 30
0.0
 40
2.25
100
AcDbArc
 50
102.8395884069012
 51
137.1604115930959
  0
LINE
  5
672
330
2
100
AcDbEntity
  8
Center
 48
0.5
100
AcDbLine
 10
428.77367776056
 20
-719.1611732873297
 30
0.0
 11
431.5736777605598
 21
-719.1611732873297
 31
0.0
  0
ARC
  5
673
330
2
100
AcDbEntity
  8
Object
 48
0.5
100
AcDbCircle
 10
429.6258820345836
 20
-712.2965693273186
 30
0.0
 40
1.75
100
AcDbArc
 50
133.3984504009737
 51
166.6015495990192
  0
ARC
  5
674
330
2
100
AcDbEntity
  8
Object
 48
0.5
100
AcDbCircle
 10
429.625882034584
 20
-708.4257772473454
 30
0.0
 40
1.75
100
AcDbArc
 50
193.3984504009806
 51
226.6015495990261
  0
ARC
  5
675
330
2
100
AcDbEntity
  8
Object
 48
0.5
100
AcDbCircle
 10
426.2736777605601
 20
-710.3611732873316
 30
0.0
 40
2.25
100
AcDbArc
 50
342.8395884069153
 51
17.16041159307737
  0
ARC
  5
676
330
2
100
AcDbEntity
  8
Object
 48
0.5
370
    30
100
AcDbCircle
 10
431.8736777605583
 20
-673.6111732873356
 30
0.0
 40
1.0
100
AcDbArc
 50
0.0
 51
70.68962666215006
  0
ARC
  5
677
330
2
100
AcDbEntity
  8
Object
 48
0.5
100
AcDbCircle
 10
432.1477718398528
 20
-673.7643027389117
 30
0.0
 40
0.4330127018920962
100
AcDbArc
 50
270.0
 51
90.0
  0
ARC
  5
678
330
2
100
AcDbEntity
  8
Object
 48
0.5
100
AcDbCircle
 10
432.1477718398528
 20
-675.9580438357523
 30
0.0
 40
0.4330127018920962
100
AcDbArc
 50
270.0
 51
90.0
  0
ARC
  5
679
330
2
100
AcDbEntity
  8
Object
 48
0.5
100
AcDbCircle
 10
431.8736777605583
 20
-676.1111732873356
 30
0.0
 40
1.0
100
AcDbArc
 50
289.3103733391127
 51
0.0
  0
LINE
  5
67A
330
2
100
AcDbEntity
  8
Dims
100
AcDbLine
 10
422.3736777605592
 20
-669.3611732873335
 30
0.0
 11
422.5236777605593
 21
-669.8611732873335
 31
0.0
  0
LINE
  5
67B
330
2
100
AcDbEntity
  8
Dims
100
AcDbLine
 10
422.1736777605594
 20
-669.3611732873335
 30
0.0
 11
422.3736777605592
 21
-669.3611732873335
 31
0.0
  0
LINE
  5
67C
330
2
100
AcDbEntity
  8
Dims
100
AcDbLine
 10
422.0236777605594
 20
-669.8611732873335
 30
0.0
 11
422.1736777605594
 21
-669.3611732873335
 31
0.0
  0
LINE
  5
67D
330
2
100
AcDbEntity
  8
Dims
100
AcDbLine
 10
424.2736777605591
 20
-668.661173287333
 30
0.0
 11
424.2736777605591
 21
-669.8611732873319
 31
0.0
  0
LINE
  5
67E
330
2
100
AcDbEntity
  8
Dims
100
AcDbLine
 10
423.6736777605591
 20
-668.661173287333
 30
0.0
 11
423.6736777605591
 21
-669.8611732873318
 31
0.0
  0
LINE
  5
67F
330
2
100
AcDbEntity
  8
Dims
100
AcDbLine
 10
423.2736777605591
 20
-668.661173287333
 30
0.0
 11
423.2736777605591
 21
-669.8611732873318
 31
0.0
  0
LINE
  5
680
330
2
100
AcDbEntity
  8
Object
100
AcDbLine
 10
429.5736777605598
 20
-673.5611732873318
 30
0.0
 11
430.5736777605581
 21
-673.5611732873318
 31
0.0
  0
LINE
  5
681
330
2
100
AcDbEntity
  8
Object
 48
0.5
100
AcDbLine
 10
429.5736777605598
 20
-674.061173287332
 30
0.0
 11
430.5736777605581
 21
-674.061173287332
 31
0.0
  0
LINE
  5
682
330
2
100
AcDbEntity
  8
Object
100
AcDbLine
 10
429.5736777605598
 20
-676.1611732873317
 30
0.0
 11
430.5736777605581
 21
-676.1611732873317
 31
0.0
  0
LINE
  5
683
330
2
100
AcDbEntity
  8
Object
 48
0.5
100
AcDbLine
 10
429.5736777605598
 20
-675.6611732873316
 30
0.0
 11
430.5736777605581
 21
-675.6611732873317
 31
0.0
  0
LINE
  5
684
330
2
100
AcDbEntity
  8
Object
 48
0.5
100
AcDbLine
 10
432.1477718398528
 20
-674.1973154408038
 30
0.0
 11
431.1736777605585
 21
-674.1973154408035
 31
0.0
  0
LINE
  5
685
330
2
100
AcDbEntity
  8
Object
 48
0.5
100
AcDbLine
 10
432.1477718398528
 20
-673.3312900370195
 30
0.0
 11
431.1736777605585
 21
-673.3312900370196
 31
0.0
  0
LINE
  5
686
330
2
100
AcDbEntity
  8
Object
 48
0.5
100
AcDbLine
 10
432.2043630219777
 20
-672.6674321904876
 30
0.0
 11
431.1736777605585
 21
-672.6674321904877
 31
0.0
  0
LINE
  5
687
330
2
100
AcDbEntity
  8
Object
 48
0.5
100
AcDbLine
 10
429.7736777605599
 20
-672.4611732873297
 30
0.0
 11
430.5736777605599
 21
-672.4611732873297
 31
0.0
  0
LINE
  5
688
330
2
100
AcDbEntity
  8
Object
 48
0.5
100
AcDbLine
 10
429.7736777605599
 20
-673.4611732873299
 30
0.0
 11
430.5736777605599
 21
-673.4611732873299
 31
0.0
  0
LINE
  5
689
330
2
100
AcDbEntity
  8
Object
100
AcDbLine
 10
430.5736777605581
 20
-672.211173287332
 30
0.0
 11
431.1736777605585
 21
-672.211173287332
 31
0.0
  0
LINE
  5
68A
330
2
100
AcDbEntity
  8
Object
 48
0.5
100
AcDbLine
 10
432.1477718398528
 20
-675.5250311338602
 30
0.0
 11
431.1736777605585
 21
-675.5250311338602
 31
0.0
  0
LINE
  5
68B
330
2
100
AcDbEntity
  8
Object
 48
0.5
100
AcDbLine
 10
432.1477718398528
 20
-676.3910565376443
 30
0.0
 11
431.1736777605585
 21
-676.3910565376443
 31
0.0
  0
LINE
  5
68C
330
2
100
AcDbEntity
  8
Object
 48
0.5
100
AcDbLine
 10
432.2043630219777
 20
-677.0549143841764
 30
0.0
 11
431.1736777605585
 21
-677.0549143841763
 31
0.0
  0
LINE
  5
68D
330
2
100
AcDbEntity
  8
Object
 48
0.5
100
AcDbLine
 10
429.7736777605599
 20
-676.2611732873295
 30
0.0
 11
430.5736777605599
 21
-676.2611732873295
 31
0.0
  0
LINE
  5
68E
330
2
100
AcDbEntity
  8
Object
 48
0.5
100
AcDbLine
 10
429.7736777605599
 20
-677.2611732873298
 30
0.0
 11
430.5736777605599
 21
-677.2611732873298
 31
0.0
  0
LINE
  5
68F
330
2
100
AcDbEntity
  8
Object
100
AcDbLine
 10
430.5736777605581
 20
-677.5111732873319
 30
0.0
 11
431.1736777605585
 21
-677.511173287332
 31
0.0
  0
LINE
  5
690
330
2
100
AcDbEntity
  8
Object
 48
0.5
100
AcDbLine
 10
430.5736777605581
 20
-672.211173287332
 30
0.0
 11
430.5736777605581
 21
-677.5111732873319
 31
0.0
  0
LINE
  5
691
330
2
100
AcDbEntity
  8
Object
 48
0.5
100
AcDbLine
 10
431.1736777605585
 20
-677.511173287332
 30
0.0
 11
431.1736777605585
 21
-672.211173287332
 31
0.0
  0
LINE
  5
693
330
2
100
AcDbEntity
  8
画層1
 62
     0
 48
0.5
370
    30
100
AcDbLine
 10
432.8736777605583
 20
-676.1111732873356
 30
0.0
 11
432.8736777605583
 21
-673.6111732873356
 31
0.0
  0
POINT
  5
694
330
2
100
AcDbEntity
  8
Object
 48
0.5
100
AcDbPoint
 10
451.8641120842247
 20
-784.1342078095204
 30
0.0
  0
LINE
  5
6D1
330
2
100
AcDbEntity
  8
Object
100
AcDbLine
 10
331.0533317738397
 20
-792.0933061603625
 30
0.0
 11
331.0533317738397
 21
-771.0933061603626
 31
0.0
  0
LINE
  5
6D5
330
2
100
AcDbEntity
  8
Object
100
AcDbLine
 10
291.0533317738397
 20
-792.0933061603625
 30
0.0
 11
291.0533317738397
 21
-771.0933061603626
 31
0.0
  0
LINE
  5
6D7
330
2
100
AcDbEntity
  8
Object
100
AcDbLine
 10
251.0533317738397
 20
-792.0933061603625
 30
0.0
 11
251.0533317738397
 21
-771.0933061603626
 31
0.0
  0
LINE
  5
6DB
330
2
100
AcDbEntity
  8
Object
100
AcDbLine
 10
251.0533317738397
 20
-792.0933061603625
 30
0.0
 11
331.0533317738397
 21
-792.0933061603625
 31
0.0
  0
LINE
  5
6DC
330
2
100
AcDbEntity
  8
Object
100
AcDbLine
 10
251.0533317738397
 20
-785.0933061603625
 30
0.0
 11
331.0533317738397
 21
-785.0933061603625
 31
0.0
  0
LINE
  5
6DD
330
2
100
AcDbEntity
  8
Object
100
AcDbLine
 10
251.0533317738397
 20
-778.0933061603627
 30
0.0
 11
331.0533317738397
 21
-778.0933061603625
 31
0.0
  0
TEXT
  5
6E6
330
2
100
AcDbEntity
  8
Object
100
AcDbText
 10
253.8529624576224
 20
-783.09051074977
 30
0.0
 40
2.399999999999999
  1
CM-□－11L30
  7
Roman
100
AcDbText
  0
LINE
  5
6F5
330
2
100
AcDbEntity
  8
Object
100
AcDbLine
 10
251.0533317738397
 20
-771.0933061603626
 30
0.0
 11
331.0533317738397
 21
-771.0933061603626
 31
0.0
  0
TEXT
  5
6F8
330
2
100
AcDbEntity
  8
Object
100
AcDbText
 10
254.2305370869367
 20
-775.9433937886134
 30
0.0
 40
3.0
  1
MODEL
  7
Roman
100
AcDbText
  0
TEXT
  5
6F9
330
2
100
AcDbEntity
  8
Object
100
AcDbText
 10
309.2069938958075
 20
-775.9433937886134
 30
0.0
 40
3.0
  1
L
  7
Roman
100
AcDbText
  0
TEXT
  5
6FC
330
2
100
AcDbEntity
  8
Object
100
AcDbText
 10
305.5969774921377
 20
-783.2248949912983
 30
0.0
 40
3.0
  1
85
  7
Roman
100
AcDbText
  0
TEXT
  5
6FD
330
2
100
AcDbEntity
  8
Object
100
AcDbText
 10
305.5969774921377
 20
-789.812918154421
 30
0.0
 40
3.0
  1
71
  7
Roman
100
AcDbText
  0
TEXT
  5
6FE
330
2
100
AcDbEntity
  8
Object
100
AcDbText
 10
253.8529624576224
 20
-789.6785339128927
 30
0.0
 40
2.399999999999999
  1
CM-□－11S30
  7
Roman
100
AcDbText
  0
DIMENSION
  5
6FF
330
2
100
AcDbEntity
  8
Dims
 48
0.5
100
AcDbDimension
  2
*D24
 10
281.7684860159793
 20
-752.1596261691783
 30
0.0
 11
324.24348601598
 21
-750.2846261691782
 31
0.0
 70
    33
  1
L
 71
     5
 42
84.95000000000134
  3
STANDARD
100
AcDbAlignedDimension
 13
366.7184860159806
 23
-710.3611732873316
 33
0.0
 14
281.7684860159793
 24
-710.3611732873316
 34
0.0
1001
ACAD
1000
DSTYLE
1002
{
1070
    41
1040
2.5
1070
    42
1040
0.625
1070
    43
1040
3.75
1070
    44
1040
1.25
1070
    73
1070
     0
1070
    74
1070
     0
1070
    77
1070
     1
1070
    78
1070
     8
1070
   140
1040
2.5
1070
   141
1040
2.5
1070
   143
1040
0.0394
1070
   147
1040
0.625
1070
   171
1070
     4
1070
   172
1070
     1
1070
   273
1070
     8
1070
   274
1070
     4
1070
   277
1070
     6
1002
}
  0
TEXT
  5
716
330
2
100
AcDbEntity
  8
Object
100
AcDbText
 10
312.6891798613093
 20
-782.901527513041
 30
0.0
 40
2.0
  1
±1
100
AcDbText
  0
TEXT
  5
718
330
2
100
AcDbEntity
  8
Object
100
AcDbText
 10
312.6891798613093
 20
-789.0952998663035
 30
0.0
 40
2.0
  1
±1
100
AcDbText
  0
TEXT
  5
71D
330
2
100
AcDbEntity
  8
Dims
100
AcDbText
 10
406.7364384821081
 20
-628.8220708736858
 30
0.0
 40
2.399999999999999
  1
単位：ｍｍ
  7
Roman
100
AcDbText
  0
TEXT
  5
71E
330
2
100
AcDbEntity
  8
Dims
100
AcDbText
 10
167.1326417007593
 20
-629.7720737211955
 30
0.0
 40
3.6
  1
CM1-□-11□30 外形寸法
  7
Roman
100
AcDbText
  0
LINE
  5
731
330
2
100
AcDbEntity
  8
Center
 48
0.5
100
AcDbLine
 10
334.0751943274435
 20
-706.9611732873331
 30
0.0
 11
264.4225093344803
 21
-706.9611732873331
 31
0.0
  0
LINE
  5
735
330
2
100
AcDbEntity
  8
Object
 48
2.0
370
    30
100
AcDbLine
 10
267.2684860159793
 20
-691.5428655651749
 30
0.0
 11
277.8251088128329
 21
-691.5428655651749
 31
0.0
  0
LINE
  5
738
330
2
100
AcDbEntity
  8
Object
 48
0.5
370
    30
100
AcDbLine
 10
267.2684860159793
 20
-686.542865565175
 30
0.0
 11
267.2684860159793
 21
-687.5428655651749
 31
0.0
  0
LINE
  5
739
330
2
100
AcDbEntity
  8
Object
 48
2.0
370
    30
100
AcDbLine
 10
266.7684860159793
 20
-687.0428655651749
 30
0.0
 11
266.7684860159793
 21
-691.0428655651749
 31
0.0
  0
LINE
  5
73A
330
2
100
AcDbEntity
  8
Object
 48
2.0
370
    30
100
AcDbLine
 10
266.7684860159793
 20
-691.0428655651749
 30
0.0
 11
267.2684860159793
 21
-691.5428655651749
 31
0.0
  0
LINE
  5
73B
330
2
100
AcDbEntity
  8
Object
 48
2.0
370
    30
100
AcDbLine
 10
267.2684860159792
 20
-686.542865565175
 30
0.0
 11
277.7795366701573
 21
-686.5428655651749
 31
0.0
  0
LINE
  5
73E
330
2
100
AcDbEntity
  8
Center
 48
0.5
100
AcDbLine
 10
279.5353264506052
 20
-689.0428655651747
 30
0.0
 11
266.152420625615
 21
-689.0428655651747
 31
0.0
  0
LINE
  5
756
330
2
100
AcDbEntity
  8
Object
 48
0.5
100
AcDbLine
 10
266.7684860159793
 20
-687.5428655651749
 30
0.0
 11
276.7684860159793
 21
-687.542865565175
 31
0.0
  0
LINE
  5
757
330
2
100
AcDbEntity
  8
Object
 48
0.5
100
AcDbLine
 10
266.7684860159793
 20
-690.5428655651749
 30
0.0
 11
276.7684860159793
 21
-690.5428655651749
 31
0.0
  0
LINE
  5
758
330
2
100
AcDbEntity
  8
Object
 48
2.0
370
    30
100
AcDbLine
 10
266.7684860159793
 20
-687.0428655651749
 30
0.0
 11
267.2684860159793
 21
-686.5428655651749
 31
0.0
  0
LINE
  5
759
330
2
100
AcDbEntity
  8
Object
 48
0.5
370
    30
100
AcDbLine
 10
267.2684860159793
 20
-690.5428655651749
 30
0.0
 11
267.2684860159793
 21
-691.5428655651749
 31
0.0
  0
LINE
  5
75A
330
2
100
AcDbEntity
  8
Object
 48
0.5
100
AcDbLine
 10
276.7684860159793
 20
-690.5428655651749
 30
0.0
 11
276.7684860159793
 21
-687.5428655651751
 31
0.0
  0
SPLINE
  5
75B
330
2
100
AcDbEntity
  8
Object
 48
0.5
100
AcDbSpline
210
0.0
220
0.0
230
1.0
 70
     8
 71
     3
 72
    10
 73
     6
 74
     4
 42
0.0000000001
 43
0.0000000001
 44
0.0000000001
 12
-0.3572816435484393
 22
-0.9339966954884403
 32
0.0
 13
-0.3449584362674927
 23
-0.9386179612855734
 33
0.0
 40
0.0
 40
0.0
 40
0.0
 40
0.0
 40
2.472197399632166
 40
5.177530801330641
 40
7.621776996759887
 40
7.621776996759887
 40
7.621776996759887
 40
7.621776996759887
 10
278.149569382923
 20
-685.5279754675742
 30
0.0
 10
277.8551457995508
 20
-686.2976502015247
 30
0.0
 10
277.1566186741138
 20
-688.0001507172149
 30
0.0
 10
278.463336741873
 20
-690.5244850686836
 30
0.0
 10
277.564163464262
 20
-692.1580540405329
 30
0.0
 10
277.283109015786
 20
-692.9227918341442
 30
0.0
 11
278.149569382923
 21
-685.5279754675742
 31
0.0
 11
277.5497120923628
 21
-687.9262938813195
 31
0.0
 11
278.0162671081093
 21
-690.5910931667493
 31
0.0
 11
277.283109015786
 21
-692.9227918341442
 31
0.0
  0
SPLINE
  5
75C
330
2
100
AcDbEntity
  8
Object
 48
0.5
100
AcDbSpline
210
0.0
220
0.0
230
1.0
 70
     8
 71
     3
 72
    10
 73
     6
 74
     4
 42
0.0000000001
 43
0.0000000001
 44
0.0000000001
 12
-0.3572816435484393
 22
-0.9339966954884403
 32
0.0
 13
-0.3449584362674927
 23
-0.9386179612855734
 33
0.0
 40
0.0
 40
0.0
 40
0.0
 40
0.0
 40
2.47219739963218
 40
5.177530801330655
 40
7.6217769967599
 40
7.6217769967599
 40
7.6217769967599
 40
7.6217769967599
 10
278.8827289482972
 20
-685.5279754675742
 30
0.0
 10
278.5883053649249
 20
-686.2976502015247
 30
0.0
 10
277.8897782394879
 20
-688.0001507172149
 30
0.0
 10
279.1964963072471
 20
-690.5244850686836
 30
0.0
 10
278.2973230296361
 20
-692.1580540405329
 30
0.0
 10
278.0162685811601
 20
-692.9227918341442
 30
0.0
 11
278.8827289482972
 21
-685.5279754675742
 31
0.0
 11
278.2828716577369
 21
-687.9262938813195
 31
0.0
 11
278.7494266734834
 21
-690.5910931667493
 31
0.0
 11
278.0162685811601
 21
-692.9227918341442
 31
0.0
  0
TEXT
  5
75E
330
2
100
AcDbEntity
  8
Object
100
AcDbText
 10
260.9792781468223
 20
-683.5980524217704
 30
0.0
 40
2.399999999999999
  1
D-cut
  7
Roman
100
AcDbText
  0
LINE
  5
75F
330
2
100
AcDbEntity
  8
Object
 48
0.5
100
AcDbLine
 10
266.7684860159793
 20
-687.5428655651749
 30
0.0
 11
276.7684860159793
 21
-690.5428655651749
 31
0.0
  0
LINE
  5
760
330
2
100
AcDbEntity
  8
Object
 48
0.5
100
AcDbLine
 10
276.7684860159793
 20
-687.542865565175
 30
0.0
 11
266.7684860159793
 21
-690.5428655651749
 31
0.0
  0
ENDSEC
  0
SECTION
  2
OBJECTS
  0
DICTIONARY
  5
7
330
0
100
AcDbDictionary
281
     1
  3
ACAD_GROUP
350
20
  3
ACAD_LAYOUT
350
B
  3
ACAD_MLINESTYLE
350
21
  3
ACAD_PLOTSETTINGS
350
22
  3
ACAD_PLOTSTYLENAME
350
6
  3
AcDbVariableDictionary
350
699
  0
DICTIONARY
  5
20
102
{ACAD_REACTORS
330
7
102
}
330
7
100
AcDbDictionary
281
     1
  0
DICTIONARY
  5
B
102
{ACAD_REACTORS
330
7
102
}
330
7
100
AcDbDictionary
281
     1
  3
Model
350
A
  3
ﾚｲｱｳﾄ1
350
F
  0
DICTIONARY
  5
21
102
{ACAD_REACTORS
330
7
102
}
330
7
100
AcDbDictionary
281
     1
  3
STANDARD
350
24
  0
DICTIONARY
  5
22
102
{ACAD_REACTORS
330
7
102
}
330
7
100
AcDbDictionary
281
     1
  0
ACDBDICTIONARYWDFLT
  5
6
102
{ACAD_REACTORS
330
7
102
}
330
7
100
AcDbDictionary
281
     1
  3
Normal
350
5
100
AcDbDictionaryWithDefault
340
5
  0
DICTIONARY
  5
699
102
{ACAD_REACTORS
330
7
102
}
330
7
100
AcDbDictionary
281
     1
  3
DIMASSOC
350
69B
  3
HIDETEXT
350
69A
  0
LAYOUT
  5
A
102
{ACAD_REACTORS
330
B
102
}
330
B
100
AcDbPlotSettings
  1

  2
クセロPDF
  4
A4
  6

 40
3.174999952316283
 41
3.174999952316283
 42
3.175003051757812
 43
3.17498779296875
 44
209.9733276367186
 45
296.9259948730469
 46
7.049999999999998
 47
-1.28
 48
154.0781198850861
 49
-803.0178955935324
140
447.2106014446718
141
-613.4856113249489
142
1.0
143
1.0
 70
 11956
 72
     1
 73
     1
 74
     4
  7
monochrome.ctb
 75
    16
147
1.0
148
-154.0781198850861
149
803.0178955935324
100
AcDbLayout
  1
Model
 70
     1
 71
     0
 10
0.0
 20
0.0
 11
12.0
 21
9.0
 12
0.0
 22
0.0
 32
0.0
 14
0.0
 24
0.0
 34
0.0
 15
0.0
 25
0.0
 35
0.0
146
0.0
 13
0.0
 23
0.0
 33
0.0
 16
1.0
 26
0.0
 36
0.0
 17
0.0
 27
1.0
 37
0.0
 76
     0
330
2
  0
LAYOUT
  5
F
102
{ACAD_REACTORS
330
B
102
}
330
B
100
AcDbPlotSettings
  1

  2
NEC FAX printer driver
  4

  6

 40
0.0
 41
0.0
 42
0.0
 43
0.0
 44
0.0
 45
0.0
 46
0.0
 47
0.0
 48
0.0
 49
0.0
140
0.0
141
0.0
142
1.0
143
1.0
 70
   688
 72
     0
 73
     0
 74
     5
  7
monochrome.ctb
 75
    16
147
1.0
148
0.0
149
0.0
100
AcDbLayout
  1
ﾚｲｱｳﾄ1
 70
     1
 71
     1
 10
0.0
 20
0.0
 11
420.0
 21
297.0
 12
0.0
 22
0.0
 32
0.0
 14
1.000000000000000E+20
 24
1.000000000000000E+20
 34
1.000000000000000E+20
 15
-1.000000000000000E+20
 25
-1.000000000000000E+20
 35
-1.000000000000000E+20
146
0.0
 13
0.0
 23
0.0
 33
0.0
 16
1.0
 26
0.0
 36
0.0
 17
0.0
 27
1.0
 37
0.0
 76
     0
330
C
  0
MLINESTYLE
  5
24
102
{ACAD_REACTORS
330
21
102
}
330
21
100
AcDbMlineStyle
  2
STANDARD
 70
     0
  3

 62
   256
 51
90.0
 52
90.0
 71
     2
 49
0.5
 62
   256
  6
BYLAYER
 49
-0.5
 62
   256
  6
BYLAYER
  0
ACDBPLACEHOLDER
  5
5
102
{ACAD_REACTORS
330
6
102
}
330
6
  0
DICTIONARYVAR
  5
69B
102
{ACAD_REACTORS
330
699
102
}
330
699
100
DictionaryVariables
280
     0
  1
1
  0
DICTIONARYVAR
  5
69A
102
{ACAD_REACTORS
330
699
102
}
330
699
100
DictionaryVariables
280
     0
  1
1
  0
ENDSEC
  0
EOF
