  0
SECTION
  2
HEADER
  9
$ACADVER
  1
AC1015
  9
$ACADMAINTVER
 70
    13
  9
$DWGCODEPAGE
  3
ANSI_932
  9
$INSBASE
 10
0.0
 20
0.0
 30
0.0
  9
$EXTMIN
 10
16.49209072818238
 20
10.13399585249999
 30
0.0
  9
$EXTMAX
 10
271.6926953086999
 20
200.5287142324
 30
39.7
  9
$LIMMIN
 10
0.0
 20
0.0
  9
$LIMMAX
 10
297.0
 20
210.0
  9
$ORTHOMODE
 70
     1
  9
$REGENMODE
 70
     1
  9
$FILLMODE
 70
     1
  9
$QTEXTMODE
 70
     0
  9
$MIRRTEXT
 70
     1
  9
$LTSCALE
 40
1.0
  9
$ATTMODE
 70
     1
  9
$TEXTSIZE
 40
0.2
  9
$TRACEWID
 40
1.0
  9
$TEXTSTYLE
  7
SLDTEXTSTYLE0
  9
$CLAYER
  8
0
  9
$CELTYPE
  6
ByLayer
  9
$CECOLOR
 62
   256
  9
$CELTSCALE
 40
1.0
  9
$DISPSILH
 70
     0
  9
$DIMSCALE
 40
1.0
  9
$DIMASZ
 40
2.5
  9
$DIMEXO
 40
0.6
  9
$DIMDLI
 40
3.75
  9
$DIMRND
 40
0.0
  9
$DIMDLE
 40
0.0
  9
$DIMEXE
 40
1.0
  9
$DIMTP
 40
0.0
  9
$DIMTM
 40
0.0
  9
$DIMTXT
 40
4.2333333333
  9
$DIMCEN
 40
2.5
  9
$DIMTSZ
 40
0.0
  9
$DIMTOL
 70
     0
  9
$DIMLIM
 70
     0
  9
$DIMTIH
 70
     1
  9
$DIMTOH
 70
     1
  9
$DIMSE1
 70
     0
  9
$DIMSE2
 70
     0
  9
$DIMTAD
 70
     1
  9
$DIMZIN
 70
     0
  9
$DIMBLK
  1

  9
$DIMASO
 70
     1
  9
$DIMSHO
 70
     1
  9
$DIMPOST
  1

  9
$DIMAPOST
  1

  9
$DIMALT
 70
     0
  9
$DIMALTD
 70
     3
  9
$DIMALTF
 40
0.0393700787
  9
$DIMLFAC
 40
1.0
  9
$DIMTOFL
 70
     1
  9
$DIMTVP
 40
0.0
  9
$DIMTIX
 70
     0
  9
$DIMSOXD
 70
     0
  9
$DIMSAH
 70
     0
  9
$DIMBLK1
  1

  9
$DIMBLK2
  1

  9
$DIMSTYLE
  2
ISO-25
  9
$DIMCLRD
 70
     0
  9
$DIMCLRE
 70
     0
  9
$DIMCLRT
 70
     0
  9
$DIMTFAC
 40
1.0
  9
$DIMGAP
 40
1.524
  9
$DIMJUST
 70
     0
  9
$DIMSD1
 70
     0
  9
$DIMSD2
 70
     0
  9
$DIMTOLJ
 70
     0
  9
$DIMTZIN
 70
     0
  9
$DIMALTZ
 70
     0
  9
$DIMALTTZ
 70
     0
  9
$DIMUPT
 70
     0
  9
$DIMDEC
 70
     3
  9
$DIMTDEC
 70
     3
  9
$DIMALTU
 70
     2
  9
$DIMALTTD
 70
     3
  9
$DIMTXSTY
  7
Standard
  9
$DIMAUNIT
 70
     0
  9
$DIMADEC
 70
     2
  9
$DIMALTRND
 40
0.0
  9
$DIMAZIN
 70
     0
  9
$DIMDSEP
 70
    44
  9
$DIMATFIT
 70
     3
  9
$DIMFRAC
 70
     0
  9
$DIMLDRBLK
  1

  9
$DIMLUNIT
 70
     2
  9
$DIMLWD
 70
    -2
  9
$DIMLWE
 70
    -2
  9
$DIMTMOVE
 70
     0
  9
$LUNITS
 70
     2
  9
$LUPREC
 70
     2
  9
$SKETCHINC
 40
1.0
  9
$FILLETRAD
 40
10.0
  9
$AUNITS
 70
     0
  9
$AUPREC
 70
     2
  9
$MENU
  1
.
  9
$ELEVATION
 40
0.0
  9
$PELEVATION
 40
0.0
  9
$THICKNESS
 40
0.0
  9
$LIMCHECK
 70
     0
  9
$CHAMFERA
 40
10.0
  9
$CHAMFERB
 40
10.0
  9
$CHAMFERC
 40
20.0
  9
$CHAMFERD
 40
0.0
  9
$SKPOLY
 70
     0
  9
$TDCREATE
 40
2455593.494684236
  9
$TDUCREATE
 40
2455593.119684236
  9
$TDUPDATE
 40
2455595.412887176
  9
$TDUUPDATE
 40
2455595.037887176
  9
$TDINDWG
 40
0.0709472801
  9
$TDUSRTIMER
 40
0.0709469213
  9
$USRTIMER
 70
     1
  9
$ANGBASE
 50
0.0
  9
$ANGDIR
 70
     0
  9
$PDMODE
 70
     0
  9
$PDSIZE
 40
-1.0
  9
$PLINEWID
 40
0.0
  9
$SPLFRAME
 70
     0
  9
$SPLINETYPE
 70
     6
  9
$SPLINESEGS
 70
     8
  9
$HANDSEED
  5
4CB
  9
$SURFTAB1
 70
     6
  9
$SURFTAB2
 70
     6
  9
$SURFTYPE
 70
     6
  9
$SURFU
 70
     6
  9
$SURFV
 70
     6
  9
$UCSBASE
  2

  9
$UCSNAME
  2

  9
$UCSORG
 10
0.0
 20
0.0
 30
0.0
  9
$UCSXDIR
 10
1.0
 20
0.0
 30
0.0
  9
$UCSYDIR
 10
0.0
 20
1.0
 30
0.0
  9
$UCSORTHOREF
  2

  9
$UCSORTHOVIEW
 70
     0
  9
$UCSORGTOP
 10
0.0
 20
0.0
 30
0.0
  9
$UCSORGBOTTOM
 10
0.0
 20
0.0
 30
0.0
  9
$UCSORGLEFT
 10
0.0
 20
0.0
 30
0.0
  9
$UCSORGRIGHT
 10
0.0
 20
0.0
 30
0.0
  9
$UCSORGFRONT
 10
0.0
 20
0.0
 30
0.0
  9
$UCSORGBACK
 10
0.0
 20
0.0
 30
0.0
  9
$PUCSBASE
  2

  9
$PUCSNAME
  2

  9
$PUCSORG
 10
0.0
 20
0.0
 30
0.0
  9
$PUCSXDIR
 10
1.0
 20
0.0
 30
0.0
  9
$PUCSYDIR
 10
0.0
 20
1.0
 30
0.0
  9
$PUCSORTHOREF
  2

  9
$PUCSORTHOVIEW
 70
     0
  9
$PUCSORGTOP
 10
0.0
 20
0.0
 30
0.0
  9
$PUCSORGBOTTOM
 10
0.0
 20
0.0
 30
0.0
  9
$PUCSORGLEFT
 10
0.0
 20
0.0
 30
0.0
  9
$PUCSORGRIGHT
 10
0.0
 20
0.0
 30
0.0
  9
$PUCSORGFRONT
 10
0.0
 20
0.0
 30
0.0
  9
$PUCSORGBACK
 10
0.0
 20
0.0
 30
0.0
  9
$USERI1
 70
     0
  9
$USERI2
 70
     0
  9
$USERI3
 70
     0
  9
$USERI4
 70
     0
  9
$USERI5
 70
     0
  9
$USERR1
 40
0.0
  9
$USERR2
 40
0.0
  9
$USERR3
 40
0.0
  9
$USERR4
 40
0.0
  9
$USERR5
 40
0.0
  9
$WORLDVIEW
 70
     1
  9
$SHADEDGE
 70
     3
  9
$SHADEDIF
 70
    70
  9
$TILEMODE
 70
     1
  9
$MAXACTVP
 70
    64
  9
$PINSBASE
 10
0.0
 20
0.0
 30
0.0
  9
$PLIMCHECK
 70
     0
  9
$PEXTMIN
 10
1.000000000000000E+20
 20
1.000000000000000E+20
 30
1.000000000000000E+20
  9
$PEXTMAX
 10
-1.000000000000000E+20
 20
-1.000000000000000E+20
 30
-1.000000000000000E+20
  9
$PLIMMIN
 10
0.0
 20
0.0
  9
$PLIMMAX
 10
420.0
 20
297.0
  9
$UNITMODE
 70
     0
  9
$VISRETAIN
 70
     1
  9
$PLINEGEN
 70
     0
  9
$PSLTSCALE
 70
     1
  9
$TREEDEPTH
 70
  3020
  9
$CMLSTYLE
  2
Standard
  9
$CMLJUST
 70
     0
  9
$CMLSCALE
 40
20.0
  9
$PROXYGRAPHICS
 70
     1
  9
$MEASUREMENT
 70
     1
  9
$CELWEIGHT
370
    -1
  9
$ENDCAPS
280
     0
  9
$JOINSTYLE
280
     0
  9
$LWDISPLAY
290
     0
  9
$INSUNITS
 70
     4
  9
$HYPERLINKBASE
  1

  9
$STYLESHEET
  1

  9
$XEDIT
290
     1
  9
$CEPSNTYPE
380
     0
  9
$PSTYLEMODE
290
     1
  9
$FINGERPRINTGUID
  2
{CB708077-6A84-4CA4-BD2D-0675BCD09763}
  9
$VERSIONGUID
  2
{B603FDCA-54BA-4D3F-9044-4FC56D4DB42C}
  9
$EXTNAMES
290
     1
  9
$PSVPSCALE
 40
0.0
  9
$OLESTARTUP
290
     0
  0
ENDSEC
  0
SECTION
  2
CLASSES
  0
CLASS
  1
ACDBDICTIONARYWDFLT
  2
AcDbDictionaryWithDefault
  3
AutoCAD 2000
 90
        0
280
     0
281
     0
  0
CLASS
  1
VISUALSTYLE
  2
AcDbVisualStyle
  3
ObjectDBX Classes
 90
    36863
280
     1
281
     0
  0
CLASS
  1
SCALE
  2
AcDbScale
  3
ObjectDBX Classes
 90
    33921
280
     1
281
     0
  0
CLASS
  1
DICTIONARYVAR
  2
AcDbDictionaryVar
  3
AutoCAD 2000
 90
        0
280
     0
281
     0
  0
CLASS
  1
ACDBPLACEHOLDER
  2
AcDbPlaceHolder
  3
AutoCAD 2000
 90
        0
280
     0
281
     0
  0
CLASS
  1
LAYOUT
  2
AcDbLayout
  3
AutoCAD 2000
 90
        0
280
     0
281
     0
  0
CLASS
  1
DIMASSOC
  2
AcDbDimAssoc
  3
"AcDbDimAssoc|Product Desc:     AcDim ARX App For Dimension|Company:          Autodesk, Inc.|WEB Address:      www.autodesk.com"
 90
    32768
280
     0
281
     0
  0
ENDSEC
  0
SECTION
  2
TABLES
  0
TABLE
  2
VPORT
  5
19
330
0
100
AcDbSymbolTable
 70
     2
  0
VPORT
  5
4CA
330
19
100
AcDbSymbolTableRecord
100
AcDbViewportTableRecord
  2
*Active
 70
     0
 10
0.0
 20
0.0
 11
1.0
 21
1.0
 12
141.2164865244442
 22
102.5849802886046
 13
0.0
 23
0.0
 14
10.0
 24
10.0
 15
10.0
 25
10.0
 16
0.0
 26
0.0
 36
1.0
 17
0.0
 27
0.0
 37
0.0
 40
249.6716368597978
 41
1.518709677419354
 42
50.0
 43
0.0
 44
0.0
 50
0.0
 51
0.0
 71
     0
 72
  2000
 73
     1
 74
     3
 75
     0
 76
     0
 77
     0
 78
     0
281
     0
 65
     1
110
0.0
120
0.0
130
0.0
111
1.0
121
0.0
131
0.0
112
0.0
122
1.0
132
0.0
 79
     0
146
0.0
  0
ENDTAB
  0
TABLE
  2
LTYPE
  5
14
330
0
100
AcDbSymbolTable
 70
     2
  0
LTYPE
  5
15
330
14
100
AcDbSymbolTableRecord
100
AcDbLinetypeTableRecord
  2
ByBlock
 70
     0
  3

 72
    65
 73
     0
 40
0.0
  0
LTYPE
  5
16
330
14
100
AcDbSymbolTableRecord
100
AcDbLinetypeTableRecord
  2
ByLayer
 70
     0
  3

 72
    65
 73
     0
 40
0.0
  0
LTYPE
  5
8
330
14
100
AcDbSymbolTableRecord
100
AcDbLinetypeTableRecord
  2
Continuous
 70
     0
  3
Solid line
 72
    65
 73
     0
 40
0.0
  0
LTYPE
  5
27
330
14
100
AcDbSymbolTableRecord
100
AcDbLinetypeTableRecord
  2
CENTER
 70
     0
  3
Center ____ _ ____ _ ____ _ ____ _ ____ _ ____
 72
    65
 73
     4
 40
10.16
 49
6.349999999999997
 74
     0
 49
-1.27
 74
     0
 49
1.27
 74
     0
 49
-1.27
 74
     0
  0
ENDTAB
  0
TABLE
  2
LAYER
  5
10
330
0
100
AcDbSymbolTable
 70
     3
  0
LAYER
  5
4
330
10
100
AcDbSymbolTableRecord
100
AcDbLayerTableRecord
  2
0
 70
     0
 62
     7
  6
Continuous
370
    -3
390
5
  0
LAYER
  5
29
330
10
100
AcDbSymbolTableRecord
100
AcDbLayerTableRecord
  2
DIMS
 70
     0
 62
     6
  6
Continuous
370
    -3
390
5
  0
LAYER
  5
26
330
10
100
AcDbSymbolTableRecord
100
AcDbLayerTableRecord
  2
CENTER
 70
     0
 62
     1
  6
CENTER
370
    -3
390
5
  0
ENDTAB
  0
TABLE
  2
STYLE
  5
11
330
0
100
AcDbSymbolTable
 70
     2
  0
STYLE
  5
12
330
11
100
AcDbSymbolTableRecord
100
AcDbTextStyleTableRecord
  2
Standard
 70
     0
 40
0.0
 41
1.0
 50
0.0
 71
     0
 42
2.5
  3
txt
  4
bigfont
  0
STYLE
  5
23
330
11
100
AcDbSymbolTableRecord
100
AcDbTextStyleTableRecord
  2
SLDTEXTSTYLE0
 70
     0
 40
0.0
 41
0.7
 50
0.0
 71
     0
 42
0.2
  3
TXT
  4
bigfont
  0
ENDTAB
  0
TABLE
  2
VIEW
  5
17
330
0
100
AcDbSymbolTable
 70
     0
  0
ENDTAB
  0
TABLE
  2
UCS
  5
18
330
0
100
AcDbSymbolTable
 70
     0
  0
ENDTAB
  0
TABLE
  2
APPID
  5
1B
330
0
100
AcDbSymbolTable
 70
     1
  0
APPID
  5
1C
330
1B
100
AcDbSymbolTableRecord
100
AcDbRegAppTableRecord
  2
ACAD
 70
     0
  0
ENDTAB
  0
TABLE
  2
DIMSTYLE
  5
1D
330
0
100
AcDbSymbolTable
 70
    16
100
AcDbDimStyleTable
 71
     1
340
1E
  0
DIMSTYLE
105
1E
330
1D
100
AcDbSymbolTableRecord
100
AcDbDimStyleTableRecord
  2
ISO-25
 70
     0
 41
2.5
 42
0.625
 43
3.75
 44
1.25
 73
     0
 74
     0
 77
     1
 78
     8
140
2.5
141
2.5
143
0.0393700787
147
0.625
171
     3
172
     1
271
     2
272
     2
274
     3
278
    44
283
     0
284
     8
340
12
  0
DIMSTYLE
105
CE
102
{ACAD_REACTORS
330
CD
102
}
330
1D
100
AcDbSymbolTableRecord
100
AcDbDimStyleTableRecord
  2
SLDDIMSTYLE0
 70
     0
 41
2.5
 44
0.0
 45
0.000000001
 47
0.5
 48
0.5
 71
     1
 73
     0
 74
     0
 77
     2
 78
    12
140
3.638020833299997
147
0.9095052083
173
     1
271
     3
272
     1
284
     8
340
23
341
2A
343
2A
344
2A
  0
DIMSTYLE
105
B3
102
{ACAD_REACTORS
330
B2
102
}
330
1D
100
AcDbSymbolTableRecord
100
AcDbDimStyleTableRecord
  2
SLDDIMSTYLE1
 70
     0
 41
2.5
 44
0.0
 45
0.000000001
 47
0.5
 48
0.5
 71
     1
 73
     0
 74
     0
 77
     2
 78
    12
140
3.638020833299997
147
0.9095052083
173
     1
271
     1
272
     1
284
     8
340
23
341
2A
343
2A
344
2A
  0
DIMSTYLE
105
A7
102
{ACAD_REACTORS
330
C2
330
A6
102
}
330
1D
100
AcDbSymbolTableRecord
100
AcDbDimStyleTableRecord
  2
SLDDIMSTYLE2
 70
     0
 41
2.5
 44
0.0
 45
0.000000001
 47
0.13
 48
0.13
 71
     1
 73
     0
 74
     0
 77
     2
 78
    12
140
3.638020833299997
147
0.9095052083
173
     1
271
     2
272
     2
284
     8
340
23
341
2A
343
2A
344
2A
  0
DIMSTYLE
105
9A
102
{ACAD_REACTORS
330
99
330
19D
330
193
330
30C
330
2B3
330
246
330
225
330
29E
330
219
102
}
330
1D
100
AcDbSymbolTableRecord
100
AcDbDimStyleTableRecord
  2
SLDDIMSTYLE3
 70
     0
 41
2.5
 44
0.0
 45
0.000000001
 73
     0
 74
     0
 77
     2
 78
    12
140
3.638020833299997
147
0.9095052083
173
     1
271
     2
272
     2
284
    12
340
23
341
2A
343
2A
344
2A
  0
DIMSTYLE
105
1A8
102
{ACAD_REACTORS
330
1A7
102
}
330
1D
100
AcDbSymbolTableRecord
100
AcDbDimStyleTableRecord
  2
SLDDIMSTYLE4
 70
     0
 41
2.5
 44
0.0
 45
0.000000001
 47
0.5
 71
     1
 78
    12
140
3.638020833299997
147
0.9095052083
172
     1
173
     1
271
     2
272
     1
284
     8
340
23
341
2A
343
2A
344
2A
  0
DIMSTYLE
105
6E
102
{ACAD_REACTORS
330
6D
102
}
330
1D
100
AcDbSymbolTableRecord
100
AcDbDimStyleTableRecord
  2
SLDDIMSTYLE5
 70
     0
 41
2.5
 44
0.0
 45
0.000000001
 48
0.013
 71
     1
 73
     0
 74
     0
 77
     2
 78
    12
140
3.638020833299997
147
0.9095052083
173
     1
271
     2
272
     2
284
     8
340
23
341
2A
343
2A
344
2A
  0
DIMSTYLE
105
182
102
{ACAD_REACTORS
330
181
102
}
330
1D
100
AcDbSymbolTableRecord
100
AcDbDimStyleTableRecord
  2
SLDDIMSTYLE6
 70
     0
 41
2.5
 44
0.0
 45
0.000000001
 47
0.2
 48
0.2
 71
     1
 73
     0
 74
     0
 77
     2
 78
    12
140
3.638020833299997
147
0.9095052083
173
     1
271
     2
272
     1
284
     8
340
23
341
2A
343
2A
344
2A
  0
DIMSTYLE
105
60
102
{ACAD_REACTORS
330
5F
102
}
330
1D
100
AcDbSymbolTableRecord
100
AcDbDimStyleTableRecord
  2
SLDDIMSTYLE7
 70
     0
 41
2.5
 44
0.0
 45
0.000000001
 47
1.0
 71
     1
 73
     0
 74
     0
 77
     2
 78
    12
140
3.638020833299997
147
0.9095052083
173
     1
271
     0
272
     0
284
    12
340
23
341
2A
343
2A
344
2A
  0
DIMSTYLE
105
52
102
{ACAD_REACTORS
330
51
330
2CD
102
}
330
1D
100
AcDbSymbolTableRecord
100
AcDbDimStyleTableRecord
  2
SLDDIMSTYLE8
 70
     0
 41
2.5
 44
0.0
 45
0.000000001
 47
0.25
 48
0.25
 71
     1
 73
     0
 74
     0
 77
     2
 78
    12
140
3.638020833299997
147
0.9095052083
173
     1
271
     2
272
     2
284
     8
340
23
341
2A
343
2A
344
2A
  0
DIMSTYLE
105
44
102
{ACAD_REACTORS
330
43
102
}
330
1D
100
AcDbSymbolTableRecord
100
AcDbDimStyleTableRecord
  2
SLDDIMSTYLE9
 70
     0
 41
2.5
 44
0.0
 45
0.000000001
 47
0.5
 48
0.5
 71
     1
 73
     0
 74
     0
 77
     2
 78
    12
140
3.638020833299997
147
0.9095052083
173
     1
271
     2
272
     1
284
     8
340
23
341
2A
343
2A
344
2A
  0
DIMSTYLE
105
37
102
{ACAD_REACTORS
330
36
102
}
330
1D
100
AcDbSymbolTableRecord
100
AcDbDimStyleTableRecord
  2
SLDDIMSTYLE10
 70
     0
 41
2.5
 44
0.0
 45
0.000000001
 47
0.025
 48
0.025
 71
     1
 73
     0
 74
     0
 77
     2
 78
    12
140
3.638020833299997
147
0.9095052083
173
     1
271
     2
272
     2
284
     8
340
23
341
2A
343
2A
344
2A
  0
DIMSTYLE
105
300
102
{ACAD_REACTORS
330
2FF
102
}
330
1D
100
AcDbSymbolTableRecord
100
AcDbDimStyleTableRecord
  2
SLDDIMSTYLE11
 70
     0
 41
2.5
 44
0.0
 45
0.000000001
 73
     0
 74
     0
 77
     2
 78
    12
140
3.638020833299997
147
0.9095052083
173
     1
271
     1
272
     1
284
    12
340
23
341
2A
343
2A
344
2A
  0
DIMSTYLE
105
253
102
{ACAD_REACTORS
330
252
102
}
330
1D
100
AcDbSymbolTableRecord
100
AcDbDimStyleTableRecord
  2
SLDDIMSTYLE12
 70
     0
 41
2.5
 44
0.0
 45
0.000000001
 73
     0
 74
     0
 77
     2
 78
    12
140
3.638020833299997
147
0.9095052083
173
     1
271
     2
272
     1
284
    12
340
23
341
2A
343
2A
344
2A
  0
DIMSTYLE
105
23B
102
{ACAD_REACTORS
330
23A
102
}
330
1D
100
AcDbSymbolTableRecord
100
AcDbDimStyleTableRecord
  2
SLDDIMSTYLE13
 70
     0
 41
2.5
 44
0.0
 45
0.000000001
 47
1.0
 48
1.0
 71
     1
 73
     0
 74
     0
 77
     2
 78
    12
140
3.638020833299997
147
0.9095052083
173
     1
271
     2
272
     2
284
    12
340
23
341
2A
343
2A
344
2A
  0
DIMSTYLE
105
30
330
1D
100
AcDbSymbolTableRecord
100
AcDbDimStyleTableRecord
  2
SLDDIMSTYLE14
 70
     0
 41
2.5
 44
0.0
 45
0.000000001
140
0.0
146
2.5
147
0.0
173
     1
271
     0
272
     0
340
12
341
2A
343
2A
344
2A
  0
ENDTAB
  0
TABLE
  2
BLOCK_RECORD
  5
1
330
0
100
AcDbSymbolTable
 70
    29
  0
BLOCK_RECORD
  5
2
330
1
100
AcDbSymbolTableRecord
100
AcDbBlockTableRecord
  2
*Model_Space
340
A
  0
BLOCK_RECORD
  5
C
330
1
100
AcDbSymbolTableRecord
100
AcDbBlockTableRecord
  2
*Paper_Space
340
F
  0
BLOCK_RECORD
  5
2A
330
1
100
AcDbSymbolTableRecord
100
AcDbBlockTableRecord
  2
_OPEN30
340
0
102
{BLKREFS
331
D0
331
D1
331
B5
331
B6
331
C4
331
C5
331
A9
331
AA
331
9E
331
9F
331
1AA
331
19F
331
1A0
331
195
331
196
331
70
331
71
331
184
331
185
331
62
331
63
331
54
331
55
331
46
331
47
331
39
331
3A
331
310
331
311
331
2B5
331
2B6
331
302
331
303
331
255
331
256
331
248
331
249
331
227
331
228
331
2A0
331
2A1
331
21D
331
21E
331
23D
331
23E
331
2CF
331
2D0
102
}
  0
BLOCK_RECORD
  5
CF
330
1
100
AcDbSymbolTableRecord
100
AcDbBlockTableRecord
  2
*D1
340
0
  0
BLOCK_RECORD
  5
B4
330
1
100
AcDbSymbolTableRecord
100
AcDbBlockTableRecord
  2
*D2
340
0
  0
BLOCK_RECORD
  5
C3
330
1
100
AcDbSymbolTableRecord
100
AcDbBlockTableRecord
  2
*D3
340
0
  0
BLOCK_RECORD
  5
A8
330
1
100
AcDbSymbolTableRecord
100
AcDbBlockTableRecord
  2
*D4
340
0
  0
BLOCK_RECORD
  5
9B
330
1
100
AcDbSymbolTableRecord
100
AcDbBlockTableRecord
  2
*D5
340
0
  0
BLOCK_RECORD
  5
1A9
330
1
100
AcDbSymbolTableRecord
100
AcDbBlockTableRecord
  2
*D6
340
0
  0
BLOCK_RECORD
  5
19E
330
1
100
AcDbSymbolTableRecord
100
AcDbBlockTableRecord
  2
*D7
340
0
  0
BLOCK_RECORD
  5
194
330
1
100
AcDbSymbolTableRecord
100
AcDbBlockTableRecord
  2
*D8
340
0
  0
BLOCK_RECORD
  5
8E
330
1
100
AcDbSymbolTableRecord
100
AcDbBlockTableRecord
  2
SW_CENTERMARKSYMBOL_0
340
0
102
{BLKREFS
331
8D
102
}
  0
BLOCK_RECORD
  5
82
330
1
100
AcDbSymbolTableRecord
100
AcDbBlockTableRecord
  2
SW_CENTERMARKSYMBOL_1
340
0
102
{BLKREFS
331
81
102
}
  0
BLOCK_RECORD
  5
EA
330
1
100
AcDbSymbolTableRecord
100
AcDbBlockTableRecord
  2
SW_CENTERMARKSYMBOL_2
340
0
102
{BLKREFS
331
E9
102
}
  0
BLOCK_RECORD
  5
129
330
1
100
AcDbSymbolTableRecord
100
AcDbBlockTableRecord
  2
SW_CENTERMARKSYMBOL_3
340
0
102
{BLKREFS
331
128
102
}
  0
BLOCK_RECORD
  5
6F
330
1
100
AcDbSymbolTableRecord
100
AcDbBlockTableRecord
  2
*D13
340
0
  0
BLOCK_RECORD
  5
183
330
1
100
AcDbSymbolTableRecord
100
AcDbBlockTableRecord
  2
*D14
340
0
  0
BLOCK_RECORD
  5
61
330
1
100
AcDbSymbolTableRecord
100
AcDbBlockTableRecord
  2
*D15
340
0
  0
BLOCK_RECORD
  5
53
330
1
100
AcDbSymbolTableRecord
100
AcDbBlockTableRecord
  2
*D16
340
0
  0
BLOCK_RECORD
  5
45
330
1
100
AcDbSymbolTableRecord
100
AcDbBlockTableRecord
  2
*D17
340
0
  0
BLOCK_RECORD
  5
38
330
1
100
AcDbSymbolTableRecord
100
AcDbBlockTableRecord
  2
*D18
340
0
  0
BLOCK_RECORD
  5
30D
330
1
100
AcDbSymbolTableRecord
100
AcDbBlockTableRecord
  2
*D19
340
0
  0
BLOCK_RECORD
  5
2B4
330
1
100
AcDbSymbolTableRecord
100
AcDbBlockTableRecord
  2
*D20
340
0
  0
BLOCK_RECORD
  5
301
330
1
100
AcDbSymbolTableRecord
100
AcDbBlockTableRecord
  2
*D21
340
0
  0
BLOCK_RECORD
  5
254
330
1
100
AcDbSymbolTableRecord
100
AcDbBlockTableRecord
  2
*D22
340
0
  0
BLOCK_RECORD
  5
247
330
1
100
AcDbSymbolTableRecord
100
AcDbBlockTableRecord
  2
*D23
340
0
  0
BLOCK_RECORD
  5
226
330
1
100
AcDbSymbolTableRecord
100
AcDbBlockTableRecord
  2
*D24
340
0
  0
BLOCK_RECORD
  5
29F
330
1
100
AcDbSymbolTableRecord
100
AcDbBlockTableRecord
  2
*D25
340
0
  0
BLOCK_RECORD
  5
21A
330
1
100
AcDbSymbolTableRecord
100
AcDbBlockTableRecord
  2
*D26
340
0
  0
BLOCK_RECORD
  5
23C
330
1
100
AcDbSymbolTableRecord
100
AcDbBlockTableRecord
  2
*D27
340
0
  0
BLOCK_RECORD
  5
2CE
330
1
100
AcDbSymbolTableRecord
100
AcDbBlockTableRecord
  2
*D28
340
0
  0
ENDTAB
  0
ENDSEC
  0
SECTION
  2
BLOCKS
  0
BLOCK
  5
3
330
2
100
AcDbEntity
  8
0
100
AcDbBlockBegin
  2
*Model_Space
 70
     0
 10
0.0
 20
0.0
 30
0.0
  3
*Model_Space
  1

  0
ENDBLK
  5
9
330
2
100
AcDbEntity
  8
0
100
AcDbBlockEnd
  0
BLOCK
  5
D
330
C
100
AcDbEntity
 67
     1
  8
0
100
AcDbBlockBegin
  2
*Paper_Space
 70
     0
 10
0.0
 20
0.0
 30
0.0
  3
*Paper_Space
  1

  0
ENDBLK
  5
E
330
C
100
AcDbEntity
 67
     1
  8
0
100
AcDbBlockEnd
  0
BLOCK
  5
2E
330
2A
100
AcDbEntity
  8
0
100
AcDbBlockBegin
  2
_OPEN30
 70
     0
 10
0.0
 20
0.0
 30
0.0
  3
_OPEN30
  1

  0
LINE
  5
2B
330
2A
100
AcDbEntity
  8
0
  6
ByBlock
 62
     0
370
    -2
100
AcDbLine
 10
-1.0
 20
0.267949
 30
0.0
 11
0.0
 21
0.0
 31
0.0
  0
LINE
  5
2C
330
2A
100
AcDbEntity
  8
0
  6
ByBlock
 62
     0
370
    -2
100
AcDbLine
 10
0.0
 20
0.0
 30
0.0
 11
-1.0
 21
-0.267949
 31
0.0
  0
LINE
  5
2D
330
2A
100
AcDbEntity
  8
0
  6
ByBlock
 62
     0
370
    -2
100
AcDbLine
 10
0.0
 20
0.0
 30
0.0
 11
-1.0
 21
0.0
 31
0.0
  0
ENDBLK
  5
2F
330
2A
100
AcDbEntity
  8
0
100
AcDbBlockEnd
  0
BLOCK
  5
D7
330
CF
100
AcDbEntity
  8
0
100
AcDbBlockBegin
  2
*D1
 70
     1
 10
0.0
 20
0.0
 30
0.0
  3
*D1
  1

  0
INSERT
  5
D0
330
CF
100
AcDbEntity
  8
DIMS
100
AcDbBlockReference
  2
_OPEN30
 10
42.7247999642
 20
43.6344105692
 30
39.7
 41
2.5
 42
2.5
 50
180.0
  0
INSERT
  5
D1
330
CF
100
AcDbEntity
  8
DIMS
100
AcDbBlockReference
  2
_OPEN30
 10
98.7247999642
 20
43.6344105692
 30
39.7
 41
2.5
 42
2.5
 50
360.0
  0
LINE
  5
D2
330
CF
100
AcDbEntity
  8
DIMS
100
AcDbLine
 10
42.7247999642
 20
61.638809582
 30
0.0
 11
42.7247999642
 21
42.6344105692
 31
0.0
  0
LINE
  5
D3
330
CF
100
AcDbEntity
  8
DIMS
100
AcDbLine
 10
98.7247999642
 20
61.638809582
 30
0.0
 11
98.7247999642
 21
42.6344105692
 31
0.0
  0
LINE
  5
D4
330
CF
100
AcDbEntity
  8
DIMS
100
AcDbLine
 10
42.7247999642
 20
43.6344105692
 30
0.0
 11
98.7247999642
 21
43.6344105692
 31
0.0
  0
MTEXT
  5
D5
330
CF
100
AcDbEntity
  8
DIMS
100
AcDbMText
 10
64.1876699756
 20
47.7272005266
 30
0.0
 40
3.174999999999998
 41
0.0
 71
     1
 72
     1
  1
56
  7
SLDTEXTSTYLE0
 73
     1
 44
1.0
  0
MTEXT
  5
D6
330
CF
100
AcDbEntity
  8
DIMS
100
AcDbMText
 10
69.70753314550001
 20
47.14520795819999
 30
0.0
 40
2.6458333333
 41
0.0
 71
     1
 72
     1
  1
±0.5
  7
SLDTEXTSTYLE0
 73
     1
 44
1.0
  0
ENDBLK
  5
D8
330
CF
100
AcDbEntity
  8
0
100
AcDbBlockEnd
  0
BLOCK
  5
BC
330
B4
100
AcDbEntity
  8
0
100
AcDbBlockBegin
  2
*D2
 70
     1
 10
0.0
 20
0.0
 30
0.0
  3
*D2
  1

  0
INSERT
  5
B5
330
B4
100
AcDbEntity
  8
DIMS
100
AcDbBlockReference
  2
_OPEN30
 10
28.66830060699999
 20
113.738809582
 30
39.7
 41
2.5
 42
2.5
 50
90.0
  0
INSERT
  5
B6
330
B4
100
AcDbEntity
  8
DIMS
100
AcDbBlockReference
  2
_OPEN30
 10
28.66830060699999
 20
57.73880958199999
 30
39.7
 41
2.5
 42
2.5
 50
270.0
  0
LINE
  5
B7
330
B4
100
AcDbEntity
  8
DIMS
100
AcDbLine
 10
46.6247999642
 20
113.738809582
 30
0.0
 11
27.668300607
 21
113.738809582
 31
0.0
  0
LINE
  5
B8
330
B4
100
AcDbEntity
  8
DIMS
100
AcDbLine
 10
46.6247999642
 20
57.73880958199999
 30
0.0
 11
27.668300607
 21
57.73880958199999
 31
0.0
  0
LINE
  5
B9
330
B4
100
AcDbEntity
  8
DIMS
100
AcDbLine
 10
28.66830060699999
 20
113.738809582
 30
0.0
 11
28.66830060699999
 21
57.73880958199999
 31
0.0
  0
MTEXT
  5
BA
330
B4
100
AcDbEntity
  8
DIMS
100
AcDbMText
 10
24.5755106496
 20
79.2016795934
 30
0.0
 40
3.174999999999998
 41
0.0
 71
     1
 72
     1
  1
56
  7
SLDTEXTSTYLE0
 11
-0.000000000000007
 21
1.0
 31
0.0
 73
     1
 44
1.0
  0
MTEXT
  5
BB
330
B4
100
AcDbEntity
  8
DIMS
100
AcDbMText
 10
25.157503218
 20
84.72154276319999
 30
0.0
 40
2.6458333333
 41
0.0
 71
     1
 72
     1
  1
±0.5
  7
SLDTEXTSTYLE0
 11
-0.000000000000007
 21
1.0
 31
0.0
 73
     1
 44
1.0
  0
ENDBLK
  5
BD
330
B4
100
AcDbEntity
  8
0
100
AcDbBlockEnd
  0
BLOCK
  5
CB
330
C3
100
AcDbEntity
  8
0
100
AcDbBlockBegin
  2
*D3
 70
     1
 10
0.0
 20
0.0
 30
0.0
  3
*D3
  1

  0
INSERT
  5
C4
330
C3
100
AcDbEntity
  8
DIMS
100
AcDbBlockReference
  2
_OPEN30
 10
47.1547999642
 20
49.8928824585
 30
39.7
 41
2.5
 42
2.5
 50
180.0
  0
INSERT
  5
C5
330
C3
100
AcDbEntity
  8
DIMS
100
AcDbBlockReference
  2
_OPEN30
 10
94.29479996419999
 20
49.8928824585
 30
39.7
 41
2.5
 42
2.5
 50
360.0
  0
LINE
  5
C6
330
C3
100
AcDbEntity
  8
DIMS
100
AcDbLine
 10
47.1547999642
 20
56.818809582
 30
0.0
 11
47.1547999642
 21
48.8928824585
 31
0.0
  0
LINE
  5
C7
330
C3
100
AcDbEntity
  8
DIMS
100
AcDbLine
 10
94.29479996419999
 20
56.818809582
 30
0.0
 11
94.29479996419999
 21
48.8928824585
 31
0.0
  0
LINE
  5
C8
330
C3
100
AcDbEntity
  8
DIMS
100
AcDbLine
 10
47.1547999642
 20
49.8928824585
 30
0.0
 11
94.29479996419999
 21
49.8928824585
 31
0.0
  0
MTEXT
  5
C9
330
C3
100
AcDbEntity
  8
DIMS
100
AcDbMText
 10
60.7609584591
 20
53.9856724159
 30
0.0
 40
3.174999999999998
 41
0.0
 71
     1
 72
     1
  1
47.14
  7
SLDTEXTSTYLE0
 73
     1
 44
1.0
  0
MTEXT
  5
CA
330
C3
100
AcDbEntity
  8
DIMS
100
AcDbMText
 10
71.37081934850001
 20
53.4036798475
 30
0.0
 40
2.6458333333
 41
0.0
 71
     1
 72
     1
  1
±0.13
  7
SLDTEXTSTYLE0
 73
     1
 44
1.0
  0
ENDBLK
  5
CC
330
C3
100
AcDbEntity
  8
0
100
AcDbBlockEnd
  0
BLOCK
  5
B0
330
A8
100
AcDbEntity
  8
0
100
AcDbBlockBegin
  2
*D4
 70
     1
 10
0.0
 20
0.0
 30
0.0
  3
*D4
  1

  0
INSERT
  5
A9
330
A8
100
AcDbEntity
  8
DIMS
100
AcDbBlockReference
  2
_OPEN30
 10
36.1998655517
 20
109.308809582
 30
39.7
 41
2.5
 42
2.5
 50
90.0
  0
INSERT
  5
AA
330
A8
100
AcDbEntity
  8
DIMS
100
AcDbBlockReference
  2
_OPEN30
 10
36.1998655517
 20
62.168809582
 30
39.7
 41
2.5
 42
2.5
 50
270.0
  0
LINE
  5
AB
330
A8
100
AcDbEntity
  8
DIMS
100
AcDbLine
 10
41.80479996419999
 20
109.308809582
 30
0.0
 11
35.1998655517
 21
109.308809582
 31
0.0
  0
LINE
  5
AC
330
A8
100
AcDbEntity
  8
DIMS
100
AcDbLine
 10
41.80479996419999
 20
62.168809582
 30
0.0
 11
35.1998655517
 21
62.168809582
 31
0.0
  0
LINE
  5
AD
330
A8
100
AcDbEntity
  8
DIMS
100
AcDbLine
 10
36.1998655517
 20
109.308809582
 30
0.0
 11
36.1998655517
 21
62.168809582
 31
0.0
  0
MTEXT
  5
AE
330
A8
100
AcDbEntity
  8
DIMS
100
AcDbMText
 10
32.1070755943
 20
75.77496807680001
 30
0.0
 40
3.174999999999998
 41
0.0
 71
     1
 72
     1
  1
47.14
  7
SLDTEXTSTYLE0
 11
-0.000000000000007
 21
1.0
 31
0.0
 73
     1
 44
1.0
  0
MTEXT
  5
AF
330
A8
100
AcDbEntity
  8
DIMS
100
AcDbMText
 10
32.68906816269999
 20
86.38482896620001
 30
0.0
 40
2.6458333333
 41
0.0
 71
     1
 72
     1
  1
±0.13
  7
SLDTEXTSTYLE0
 11
-0.000000000000007
 21
1.0
 31
0.0
 73
     1
 44
1.0
  0
ENDBLK
  5
B1
330
A8
100
AcDbEntity
  8
0
100
AcDbBlockEnd
  0
BLOCK
  5
A4
330
9B
100
AcDbEntity
  8
0
100
AcDbBlockBegin
  2
*D5
 70
     1
 10
0.0
 20
0.0
 30
0.0
  3
*D5
  1

  0
ARC
  5
9C
330
9B
100
AcDbEntity
  8
DIMS
100
AcDbCircle
 10
18.60844534619999
 20
93.67266419999999
 30
0.0
 40
4.732312790379308
100
AcDbArc
 50
243.4349488229
 51
296.5650511770998
  0
ARC
  5
9D
330
9B
100
AcDbEntity
  8
DIMS
100
AcDbCircle
 10
18.60844534619999
 20
92.61495496389999
 30
0.0
 40
4.732312790379328
100
AcDbArc
 50
63.43494882289999
 51
116.5650511771
  0
INSERT
  5
9E
330
9B
100
AcDbEntity
  8
DIMS
100
AcDbBlockReference
  2
_OPEN30
 10
20.7247999642
 20
128.548809582
 30
39.7
 41
2.5
 42
2.5
 50
90.0
  0
INSERT
  5
9F
330
9B
100
AcDbEntity
  8
DIMS
100
AcDbBlockReference
  2
_OPEN30
 10
20.7247999642
 20
57.73880958199999
 30
39.7
 41
2.5
 42
2.5
 50
270.0
  0
LINE
  5
A0
330
9B
100
AcDbEntity
  8
DIMS
100
AcDbLine
 10
56.2247999642
 20
128.548809582
 30
0.0
 11
19.7247999642
 21
128.548809582
 31
0.0
  0
LINE
  5
A1
330
9B
100
AcDbEntity
  8
DIMS
100
AcDbLine
 10
46.6247999642
 20
57.73880958199999
 30
0.0
 11
19.7247999642
 21
57.73880958199999
 31
0.0
  0
LINE
  5
A2
330
9B
100
AcDbEntity
  8
DIMS
100
AcDbLine
 10
20.7247999642
 20
128.548809582
 30
0.0
 11
20.7247999642
 21
57.73880958199999
 31
0.0
  0
MTEXT
  5
A3
330
9B
100
AcDbEntity
  8
DIMS
100
AcDbMText
 10
16.63201000689999
 20
91.02745496389999
 30
0.0
 40
3.174999999999998
 41
0.0
 71
     1
 72
     1
  1
71
  7
SLDTEXTSTYLE0
 11
-0.000000000000007
 21
1.0
 31
0.0
 73
     1
 44
1.0
  0
ENDBLK
  5
A5
330
9B
100
AcDbEntity
  8
0
100
AcDbBlockEnd
  0
BLOCK
  5
1B4
330
1A9
100
AcDbEntity
  8
0
100
AcDbBlockBegin
  2
*D6
 70
     1
 10
0.0
 20
0.0
 30
0.0
  3
*D6
  1

  0
INSERT
  5
1AA
330
1A9
100
AcDbEntity
  8
DIMS
100
AcDbBlockReference
  2
_OPEN30
 10
95.8837194832
 20
110.9018678866
 30
39.7
 41
2.5
 42
2.5
 50
225.0745243466999
  0
LINE
  5
1AB
330
1A9
100
AcDbEntity
  8
DIMS
100
AcDbLine
 10
95.8837194832
 20
110.9018678866
 30
0.0
 11
104.6183345944
 21
119.6592347479999
 31
0.0
  0
LINE
  5
1AC
330
1A9
100
AcDbEntity
  8
DIMS
100
AcDbLine
 10
92.70588044520001
 20
107.7157512772999
 30
0.0
 11
95.8837194832
 21
110.9018678866
 31
0.0
  0
LINE
  5
1AD
330
1A9
100
AcDbEntity
  8
DIMS
100
AcDbLine
 10
104.6183345944
 20
119.6592347479999
 30
0.0
 11
129.5518859057
 21
119.6592347479999
 31
0.0
  0
MTEXT
  5
1AE
330
1A9
100
AcDbEntity
  8
DIMS
100
AcDbMText
 10
107.5433345944
 20
123.7520247054
 30
0.0
 40
3.174999999999998
 41
0.0
 71
     1
 72
     1
  1
4-
  7
SLDTEXTSTYLE0
 73
     1
 44
1.0
  0
MTEXT
  5
1AF
330
1A9
100
AcDbEntity
  8
DIMS
100
AcDbMText
 10
111.7766678766
 20
123.7520247054
 30
0.0
 40
3.174999999999998
 41
0.0
 71
     1
 72
     1
  1
%%c
  7
SLDTEXTSTYLE0
 73
     1
 44
1.0
  0
MTEXT
  5
1B0
330
1A9
100
AcDbEntity
  8
DIMS
100
AcDbMText
 10
115.7962627586
 20
123.7520247054
 30
0.0
 40
3.174999999999998
 41
0.0
 71
     1
 72
     1
  1
4.5
  7
SLDTEXTSTYLE0
 73
     1
 44
1.0
  0
MTEXT
  5
1B1
330
1A9
100
AcDbEntity
  8
DIMS
100
AcDbMText
 10
123.7219070003
 20
123.170032137
 30
0.0
 40
2.6458333333
 41
0.0
 71
     1
 72
     1
  1
0
  7
SLDTEXTSTYLE0
 73
     1
 44
1.0
  0
MTEXT
  5
1B2
330
1A9
100
AcDbEntity
  8
DIMS
100
AcDbMText
 10
121.9584816867999
 20
126.6968827641999
 30
0.0
 40
2.6458333333
 41
0.0
 71
     1
 72
     1
  1
+
  7
SLDTEXTSTYLE0
 73
     1
 44
1.0
  0
MTEXT
  5
1B3
330
1A9
100
AcDbEntity
  8
DIMS
100
AcDbMText
 10
123.7219070003
 20
126.6968827641999
 30
0.0
 40
2.6458333333
 41
0.0
 71
     1
 72
     1
  1
0.5
  7
SLDTEXTSTYLE0
 73
     1
 44
1.0
  0
ENDBLK
  5
1B5
330
1A9
100
AcDbEntity
  8
0
100
AcDbBlockEnd
  0
BLOCK
  5
1A5
330
19E
100
AcDbEntity
  8
0
100
AcDbBlockBegin
  2
*D7
 70
     1
 10
0.0
 20
0.0
 30
0.0
  3
*D7
  1

  0
INSERT
  5
19F
330
19E
100
AcDbEntity
  8
DIMS
100
AcDbBlockReference
  2
_OPEN30
 10
56.8247999642
 20
132.6952465608999
 30
39.7
 41
2.5
 42
2.5
 50
180.0
  0
INSERT
  5
1A0
330
19E
100
AcDbEntity
  8
DIMS
100
AcDbBlockReference
  2
_OPEN30
 10
84.62479996419999
 20
132.6952465608999
 30
39.7
 41
2.5
 42
2.5
  0
LINE
  5
1A1
330
19E
100
AcDbEntity
  8
DIMS
100
AcDbLine
 10
56.8247999642
 20
129.148809582
 30
0.0
 11
56.8247999642
 21
133.6952465608999
 31
0.0
  0
LINE
  5
1A2
330
19E
100
AcDbEntity
  8
DIMS
100
AcDbLine
 10
84.62479996419999
 20
129.148809582
 30
0.0
 11
84.62479996419999
 21
133.6952465608999
 31
0.0
  0
LINE
  5
1A3
330
19E
100
AcDbEntity
  8
DIMS
100
AcDbLine
 10
56.8247999642
 20
132.6952465608999
 30
0.0
 11
84.62479996419999
 21
132.6952465608999
 31
0.0
  0
MTEXT
  5
1A4
330
19E
100
AcDbEntity
  8
DIMS
100
AcDbMText
 10
67.12101319119999
 20
136.7880365181999
 30
0.0
 40
3.174999999999998
 41
0.0
 71
     1
 72
     1
  1
27.8
  7
SLDTEXTSTYLE0
 73
     1
 44
1.0
  0
ENDBLK
  5
1A6
330
19E
100
AcDbEntity
  8
0
100
AcDbBlockEnd
  0
BLOCK
  5
19B
330
194
100
AcDbEntity
  8
0
100
AcDbBlockBegin
  2
*D8
 70
     1
 10
0.0
 20
0.0
 30
0.0
  3
*D8
  1

  0
INSERT
  5
195
330
194
100
AcDbEntity
  8
DIMS
100
AcDbBlockReference
  2
_OPEN30
 10
49.7247999642
 20
138.5488929211
 30
39.7
 41
2.5
 42
2.5
 50
180.0
  0
INSERT
  5
196
330
194
100
AcDbEntity
  8
DIMS
100
AcDbBlockReference
  2
_OPEN30
 10
91.72479996419999
 20
138.5488929211
 30
39.7
 41
2.5
 42
2.5
  0
LINE
  5
197
330
194
100
AcDbEntity
  8
DIMS
100
AcDbLine
 10
49.7247999642
 20
116.338809582
 30
0.0
 11
49.7247999642
 21
139.5488929211
 31
0.0
  0
LINE
  5
198
330
194
100
AcDbEntity
  8
DIMS
100
AcDbLine
 10
91.72479996419999
 20
116.338809582
 30
0.0
 11
91.72479996419999
 21
139.5488929211
 31
0.0
  0
LINE
  5
199
330
194
100
AcDbEntity
  8
DIMS
100
AcDbLine
 10
49.7247999642
 20
138.5488929211
 30
0.0
 11
91.72479996419999
 21
138.5488929211
 31
0.0
  0
MTEXT
  5
19A
330
194
100
AcDbEntity
  8
DIMS
100
AcDbMText
 10
68.60844534619999
 20
142.6416828784
 30
0.0
 40
3.174999999999998
 41
0.0
 71
     1
 72
     1
  1
42
  7
SLDTEXTSTYLE0
 73
     1
 44
1.0
  0
ENDBLK
  5
19C
330
194
100
AcDbEntity
  8
0
100
AcDbBlockEnd
  0
BLOCK
  5
97
330
8E
100
AcDbEntity
  8
0
100
AcDbBlockBegin
  2
SW_CENTERMARKSYMBOL_0
 70
     0
 10
0.0
 20
0.0
 30
0.0
  3
SW_CENTERMARKSYMBOL_0
  1

  0
LINE
  5
8F
330
8E
100
AcDbEntity
  8
CENTER
 62
     0
100
AcDbLine
 10
0.0
 20
0.0
 30
0.0
 11
0.0
 21
2.5
 31
0.0
  0
LINE
  5
90
330
8E
100
AcDbEntity
  8
CENTER
 62
     0
100
AcDbLine
 10
0.0
 20
0.0
 30
0.0
 11
-2.5
 21
0.0
 31
0.0
  0
LINE
  5
91
330
8E
100
AcDbEntity
  8
CENTER
 62
     0
100
AcDbLine
 10
0.0
 20
0.0
 30
0.0
 11
0.0
 21
-2.5
 31
0.0
  0
LINE
  5
92
330
8E
100
AcDbEntity
  8
CENTER
 62
     0
100
AcDbLine
 10
0.0
 20
0.0
 30
0.0
 11
2.5
 21
0.0
 31
0.0
  0
LINE
  5
93
330
8E
100
AcDbEntity
  8
CENTER
 62
     0
100
AcDbLine
 10
0.0
 20
2.5
 30
0.0
 11
0.0
 21
4.75
 31
0.0
  0
LINE
  5
94
330
8E
100
AcDbEntity
  8
CENTER
 62
     0
100
AcDbLine
 10
-2.5
 20
0.0
 30
0.0
 11
-4.75
 21
0.0
 31
0.0
  0
LINE
  5
95
330
8E
100
AcDbEntity
  8
CENTER
 62
     0
100
AcDbLine
 10
0.0
 20
-2.5
 30
0.0
 11
0.0
 21
-4.75
 31
0.0
  0
LINE
  5
96
330
8E
100
AcDbEntity
  8
CENTER
 62
     0
100
AcDbLine
 10
2.5
 20
0.0
 30
0.0
 11
4.75
 21
0.0
 31
0.0
  0
ENDBLK
  5
98
330
8E
100
AcDbEntity
  8
0
100
AcDbBlockEnd
  0
BLOCK
  5
8B
330
82
100
AcDbEntity
  8
0
100
AcDbBlockBegin
  2
SW_CENTERMARKSYMBOL_1
 70
     0
 10
0.0
 20
0.0
 30
0.0
  3
SW_CENTERMARKSYMBOL_1
  1

  0
LINE
  5
83
330
82
100
AcDbEntity
  8
CENTER
 62
     0
100
AcDbLine
 10
0.0
 20
0.0
 30
0.0
 11
0.0
 21
2.5
 31
0.0
  0
LINE
  5
84
330
82
100
AcDbEntity
  8
CENTER
 62
     0
100
AcDbLine
 10
0.0
 20
0.0
 30
0.0
 11
-2.5
 21
0.0
 31
0.0
  0
LINE
  5
85
330
82
100
AcDbEntity
  8
CENTER
 62
     0
100
AcDbLine
 10
0.0
 20
0.0
 30
0.0
 11
0.0
 21
-2.5
 31
0.0
  0
LINE
  5
86
330
82
100
AcDbEntity
  8
CENTER
 62
     0
100
AcDbLine
 10
0.0
 20
0.0
 30
0.0
 11
2.5
 21
0.0
 31
0.0
  0
LINE
  5
87
330
82
100
AcDbEntity
  8
CENTER
 62
     0
100
AcDbLine
 10
0.0
 20
2.5
 30
0.0
 11
0.0
 21
4.75
 31
0.0
  0
LINE
  5
88
330
82
100
AcDbEntity
  8
CENTER
 62
     0
100
AcDbLine
 10
-2.5
 20
0.0
 30
0.0
 11
-4.75
 21
0.0
 31
0.0
  0
LINE
  5
89
330
82
100
AcDbEntity
  8
CENTER
 62
     0
100
AcDbLine
 10
0.0
 20
-2.5
 30
0.0
 11
0.0
 21
-4.75
 31
0.0
  0
LINE
  5
8A
330
82
100
AcDbEntity
  8
CENTER
 62
     0
100
AcDbLine
 10
2.5
 20
0.0
 30
0.0
 11
4.75
 21
0.0
 31
0.0
  0
ENDBLK
  5
8C
330
82
100
AcDbEntity
  8
0
100
AcDbBlockEnd
  0
BLOCK
  5
F3
330
EA
100
AcDbEntity
  8
0
100
AcDbBlockBegin
  2
SW_CENTERMARKSYMBOL_2
 70
     0
 10
0.0
 20
0.0
 30
0.0
  3
SW_CENTERMARKSYMBOL_2
  1

  0
LINE
  5
EB
330
EA
100
AcDbEntity
  8
CENTER
 62
     0
100
AcDbLine
 10
0.0
 20
0.0
 30
0.0
 11
0.0
 21
2.5
 31
0.0
  0
LINE
  5
EC
330
EA
100
AcDbEntity
  8
CENTER
 62
     0
100
AcDbLine
 10
0.0
 20
0.0
 30
0.0
 11
-2.5
 21
0.0
 31
0.0
  0
LINE
  5
ED
330
EA
100
AcDbEntity
  8
CENTER
 62
     0
100
AcDbLine
 10
0.0
 20
0.0
 30
0.0
 11
0.0
 21
-2.5
 31
0.0
  0
LINE
  5
EE
330
EA
100
AcDbEntity
  8
CENTER
 62
     0
100
AcDbLine
 10
0.0
 20
0.0
 30
0.0
 11
2.5
 21
0.0
 31
0.0
  0
LINE
  5
EF
330
EA
100
AcDbEntity
  8
CENTER
 62
     0
100
AcDbLine
 10
0.0
 20
2.5
 30
0.0
 11
0.0
 21
4.75
 31
0.0
  0
LINE
  5
F0
330
EA
100
AcDbEntity
  8
CENTER
 62
     0
100
AcDbLine
 10
-2.5
 20
0.0
 30
0.0
 11
-4.75
 21
0.0
 31
0.0
  0
LINE
  5
F1
330
EA
100
AcDbEntity
  8
CENTER
 62
     0
100
AcDbLine
 10
0.0
 20
-2.5
 30
0.0
 11
0.0
 21
-4.75
 31
0.0
  0
LINE
  5
F2
330
EA
100
AcDbEntity
  8
CENTER
 62
     0
100
AcDbLine
 10
2.5
 20
0.0
 30
0.0
 11
4.75
 21
0.0
 31
0.0
  0
ENDBLK
  5
F4
330
EA
100
AcDbEntity
  8
0
100
AcDbBlockEnd
  0
BLOCK
  5
132
330
129
100
AcDbEntity
  8
0
100
AcDbBlockBegin
  2
SW_CENTERMARKSYMBOL_3
 70
     0
 10
0.0
 20
0.0
 30
0.0
  3
SW_CENTERMARKSYMBOL_3
  1

  0
LINE
  5
12A
330
129
100
AcDbEntity
  8
CENTER
 62
     0
100
AcDbLine
 10
0.0
 20
0.0
 30
0.0
 11
0.0
 21
2.5
 31
0.0
  0
LINE
  5
12B
330
129
100
AcDbEntity
  8
CENTER
 62
     0
100
AcDbLine
 10
0.0
 20
0.0
 30
0.0
 11
-2.5
 21
0.0
 31
0.0
  0
LINE
  5
12C
330
129
100
AcDbEntity
  8
CENTER
 62
     0
100
AcDbLine
 10
0.0
 20
0.0
 30
0.0
 11
0.0
 21
-2.5
 31
0.0
  0
LINE
  5
12D
330
129
100
AcDbEntity
  8
CENTER
 62
     0
100
AcDbLine
 10
0.0
 20
0.0
 30
0.0
 11
2.5
 21
0.0
 31
0.0
  0
LINE
  5
12E
330
129
100
AcDbEntity
  8
CENTER
 62
     0
100
AcDbLine
 10
0.0
 20
2.5
 30
0.0
 11
0.0
 21
4.75
 31
0.0
  0
LINE
  5
12F
330
129
100
AcDbEntity
  8
CENTER
 62
     0
100
AcDbLine
 10
-2.5
 20
0.0
 30
0.0
 11
-4.75
 21
0.0
 31
0.0
  0
LINE
  5
130
330
129
100
AcDbEntity
  8
CENTER
 62
     0
100
AcDbLine
 10
0.0
 20
-2.5
 30
0.0
 11
0.0
 21
-4.75
 31
0.0
  0
LINE
  5
131
330
129
100
AcDbEntity
  8
CENTER
 62
     0
100
AcDbLine
 10
2.5
 20
0.0
 30
0.0
 11
4.75
 21
0.0
 31
0.0
  0
ENDBLK
  5
133
330
129
100
AcDbEntity
  8
0
100
AcDbBlockEnd
  0
BLOCK
  5
7C
330
6F
100
AcDbEntity
  8
0
100
AcDbBlockBegin
  2
*D13
 70
     1
 10
0.0
 20
0.0
 30
0.0
  3
*D13
  1

  0
INSERT
  5
70
330
6F
100
AcDbEntity
  8
DIMS
100
AcDbBlockReference
  2
_OPEN30
 10
124.8520997995999
 20
88.913809582
 30
0.1
 41
2.5
 42
2.5
 50
270.0
  0
INSERT
  5
71
330
6F
100
AcDbEntity
  8
DIMS
100
AcDbBlockReference
  2
_OPEN30
 10
124.8520997995999
 20
82.56380958200002
 30
0.1
 41
2.5
 42
2.5
 50
90.0
  0
LINE
  5
72
330
6F
100
AcDbEntity
  8
DIMS
100
AcDbLine
 10
151.3023791356
 20
88.913809582
 30
0.0
 11
123.8520997995999
 21
88.913809582
 31
0.0
  0
LINE
  5
73
330
6F
100
AcDbEntity
  8
DIMS
100
AcDbLine
 10
136.2523791355999
 20
82.56380958200002
 30
0.0
 11
123.8520997995999
 21
82.56380958200002
 31
0.0
  0
LINE
  5
74
330
6F
100
AcDbEntity
  8
DIMS
100
AcDbLine
 10
124.8520997995999
 20
88.913809582
 30
0.0
 11
124.8520997995999
 21
94.41380958200001
 31
0.0
  0
LINE
  5
75
330
6F
100
AcDbEntity
  8
DIMS
100
AcDbLine
 10
124.8520997995999
 20
88.913809582
 30
0.0
 11
124.8520997995999
 21
82.56380958200002
 31
0.0
  0
LINE
  5
76
330
6F
100
AcDbEntity
  8
DIMS
100
AcDbLine
 10
124.8520997995999
 20
82.56380958200002
 30
0.0
 11
124.8520997995999
 21
77.063809582
 31
0.0
  0
MTEXT
  5
77
330
6F
100
AcDbEntity
  8
DIMS
100
AcDbMText
 10
120.7593098422
 20
74.8224253174
 30
0.0
 40
3.174999999999998
 41
0.0
 71
     1
 72
     1
  1
%%c
  7
SLDTEXTSTYLE0
 11
-0.000000000000007
 21
1.0
 31
0.0
 73
     1
 44
1.0
  0
MTEXT
  5
78
330
6F
100
AcDbEntity
  8
DIMS
100
AcDbMText
 10
120.7593098422
 20
78.8426442456
 30
0.0
 40
3.174999999999998
 41
0.0
 71
     1
 72
     1
  1
6.35
  7
SLDTEXTSTYLE0
 11
-0.000000000000007
 21
1.0
 31
0.0
 73
     1
 44
1.0
  0
MTEXT
  5
79
330
6F
100
AcDbEntity
  8
DIMS
100
AcDbMText
 10
121.3413024105999
 20
87.1224390004
 30
0.0
 40
2.6458333333
 41
0.0
 71
     1
 72
     1
  1
-
  7
SLDTEXTSTYLE0
 11
-0.000000000000007
 21
1.0
 31
0.0
 73
     1
 44
1.0
  0
MTEXT
  5
7A
330
6F
100
AcDbEntity
  8
DIMS
100
AcDbMText
 10
121.3413024105999
 20
88.885864314
 30
0.0
 40
2.6458333333
 41
0.0
 71
     1
 72
     1
  1
0.013
  7
SLDTEXTSTYLE0
 11
-0.000000000000007
 21
1.0
 31
0.0
 73
     1
 44
1.0
  0
MTEXT
  5
7B
330
6F
100
AcDbEntity
  8
DIMS
100
AcDbMText
 10
117.8144517833999
 20
88.885864314
 30
0.0
 40
2.6458333333
 41
0.0
 71
     1
 72
     1
  1
0
  7
SLDTEXTSTYLE0
 11
-0.000000000000007
 21
1.0
 31
0.0
 73
     1
 44
1.0
  0
ENDBLK
  5
7D
330
6F
100
AcDbEntity
  8
0
100
AcDbBlockEnd
  0
BLOCK
  5
18D
330
183
100
AcDbEntity
  8
0
100
AcDbBlockBegin
  2
*D14
 70
     1
 10
0.0
 20
0.0
 30
0.0
  3
*D14
  1

  0
INSERT
  5
184
330
183
100
AcDbEntity
  8
DIMS
100
AcDbBlockReference
  2
_OPEN30
 10
132.3194849175999
 20
88.36380958200001
 30
0.1
 41
2.5
 42
2.5
 50
270.0
  0
INSERT
  5
185
330
183
100
AcDbEntity
  8
DIMS
100
AcDbBlockReference
  2
_OPEN30
 10
132.3194849175999
 20
82.56380958200002
 30
0.1
 41
2.5
 42
2.5
 50
90.0
  0
LINE
  5
186
330
183
100
AcDbEntity
  8
DIMS
100
AcDbLine
 10
135.8523791355999
 20
88.36380958200001
 30
0.0
 11
131.3194849175999
 21
88.36380958200001
 31
0.0
  0
LINE
  5
187
330
183
100
AcDbEntity
  8
DIMS
100
AcDbLine
 10
136.2523791355999
 20
82.56380958200002
 30
0.0
 11
131.3194849175999
 21
82.56380958200002
 31
0.0
  0
LINE
  5
188
330
183
100
AcDbEntity
  8
DIMS
100
AcDbLine
 10
132.3194849175999
 20
88.36380958200001
 30
0.0
 11
132.3194849175999
 21
93.863809582
 31
0.0
  0
LINE
  5
189
330
183
100
AcDbEntity
  8
DIMS
100
AcDbLine
 10
132.3194849175999
 20
88.36380958200001
 30
0.0
 11
132.3194849175999
 21
82.56380958200002
 31
0.0
  0
LINE
  5
18A
330
183
100
AcDbEntity
  8
DIMS
100
AcDbLine
 10
132.3194849175999
 20
82.56380958200002
 30
0.0
 11
132.3194849175999
 21
71.6950838562
 31
0.0
  0
MTEXT
  5
18B
330
183
100
AcDbEntity
  8
DIMS
100
AcDbMText
 10
128.2266949602999
 20
73.2825838562
 30
0.0
 40
3.174999999999998
 41
0.0
 71
     1
 72
     1
  1
5.8
  7
SLDTEXTSTYLE0
 11
-0.000000000000007
 21
1.0
 31
0.0
 73
     1
 44
1.0
  0
MTEXT
  5
18C
330
183
100
AcDbEntity
  8
DIMS
100
AcDbMText
 10
128.8086875286
 20
79.6597355096
 30
0.0
 40
2.6458333333
 41
0.0
 71
     1
 72
     1
  1
±0.2
  7
SLDTEXTSTYLE0
 11
-0.000000000000007
 21
1.0
 31
0.0
 73
     1
 44
1.0
  0
ENDBLK
  5
18E
330
183
100
AcDbEntity
  8
0
100
AcDbBlockEnd
  0
BLOCK
  5
6B
330
61
100
AcDbEntity
  8
0
100
AcDbBlockBegin
  2
*D15
 70
     1
 10
0.0
 20
0.0
 30
0.0
  3
*D15
  1

  0
INSERT
  5
62
330
61
100
AcDbEntity
  8
DIMS
100
AcDbBlockReference
  2
_OPEN30
 10
136.4523791355999
 20
93.25780228639999
 30
0.1
 41
2.5
 42
2.5
 50
180.0
  0
INSERT
  5
63
330
61
100
AcDbEntity
  8
DIMS
100
AcDbBlockReference
  2
_OPEN30
 10
151.4814851691999
 20
93.25780228639999
 30
0.1
 41
2.5
 42
2.5
  0
LINE
  5
64
330
61
100
AcDbEntity
  8
DIMS
100
AcDbLine
 10
136.4523791355999
 20
88.96380958200001
 30
0.0
 11
136.4523791355999
 21
94.25780228639998
 31
0.0
  0
LINE
  5
65
330
61
100
AcDbEntity
  8
DIMS
100
AcDbLine
 10
151.4814851691999
 20
88.96380958200001
 30
0.0
 11
151.4814851691999
 21
94.25780228639998
 31
0.0
  0
LINE
  5
66
330
61
100
AcDbEntity
  8
DIMS
100
AcDbLine
 10
136.4523791355999
 20
93.25780228639999
 30
0.0
 11
151.4814851691999
 21
93.25780228639999
 31
0.0
  0
MTEXT
  5
67
330
61
100
AcDbEntity
  8
DIMS
100
AcDbMText
 10
139.5510416164998
 20
97.35059224370001
 30
0.0
 40
3.174999999999998
 41
0.0
 71
     1
 72
     1
  1
15
  7
SLDTEXTSTYLE0
 73
     1
 44
1.0
  0
MTEXT
  5
68
330
61
100
AcDbEntity
  8
DIMS
100
AcDbMText
 10
146.6193973748
 20
96.76859967540002
 30
0.0
 40
2.6458333333
 41
0.0
 71
     1
 72
     1
  1
0
  7
SLDTEXTSTYLE0
 73
     1
 44
1.0
  0
MTEXT
  5
69
330
61
100
AcDbEntity
  8
DIMS
100
AcDbMText
 10
144.8559720612
 20
100.2954503024999
 30
0.0
 40
2.6458333333
 41
0.0
 71
     1
 72
     1
  1
+
  7
SLDTEXTSTYLE0
 73
     1
 44
1.0
  0
MTEXT
  5
6A
330
61
100
AcDbEntity
  8
DIMS
100
AcDbMText
 10
146.6193973748
 20
100.2954503024999
 30
0.0
 40
2.6458333333
 41
0.0
 71
     1
 72
     1
  1
1
  7
SLDTEXTSTYLE0
 73
     1
 44
1.0
  0
ENDBLK
  5
6C
330
61
100
AcDbEntity
  8
0
100
AcDbBlockEnd
  0
BLOCK
  5
5D
330
53
100
AcDbEntity
  8
0
100
AcDbBlockBegin
  2
*D16
 70
     1
 10
0.0
 20
0.0
 30
0.0
  3
*D16
  1

  0
INSERT
  5
54
330
53
100
AcDbEntity
  8
DIMS
100
AcDbBlockReference
  2
_OPEN30
 10
155.5523791356
 20
50.9052983355
 30
0.1
 41
2.5
 42
2.5
 50
360.0
  0
INSERT
  5
55
330
53
100
AcDbEntity
  8
DIMS
100
AcDbBlockReference
  2
_OPEN30
 10
157.0523791356
 20
50.9052983355
 30
0.1
 41
2.5
 42
2.5
 50
180.0
  0
LINE
  5
56
330
53
100
AcDbEntity
  8
DIMS
100
AcDbLine
 10
155.5523791356
 20
66.38880958199999
 30
0.0
 11
155.5523791356
 21
49.9052983355
 31
0.0
  0
LINE
  5
57
330
53
100
AcDbEntity
  8
DIMS
100
AcDbLine
 10
157.0523791356
 20
57.638809582
 30
0.0
 11
157.0523791356
 21
49.9052983355
 31
0.0
  0
LINE
  5
58
330
53
100
AcDbEntity
  8
DIMS
100
AcDbLine
 10
155.5523791356
 20
50.9052983355
 30
0.0
 11
135.6945205968999
 21
50.9052983355
 31
0.0
  0
LINE
  5
59
330
53
100
AcDbEntity
  8
DIMS
100
AcDbLine
 10
155.5523791356
 20
50.9052983355
 30
0.0
 11
157.0523791356
 21
50.9052983355
 31
0.0
  0
LINE
  5
5A
330
53
100
AcDbEntity
  8
DIMS
100
AcDbLine
 10
157.0523791356
 20
50.9052983355
 30
0.0
 11
162.5523791356
 21
50.9052983355
 31
0.0
  0
MTEXT
  5
5B
330
53
100
AcDbEntity
  8
DIMS
100
AcDbMText
 10
137.2820205969
 20
54.9980882928
 30
0.0
 40
3.174999999999998
 41
0.0
 71
     1
 72
     1
  1
1.5
  7
SLDTEXTSTYLE0
 73
     1
 44
1.0
  0
MTEXT
  5
5C
330
53
100
AcDbEntity
  8
DIMS
100
AcDbMText
 10
143.6591722503
 20
54.41609572449999
 30
0.0
 40
2.6458333333
 41
0.0
 71
     1
 72
     1
  1
±0.25
  7
SLDTEXTSTYLE0
 73
     1
 44
1.0
  0
ENDBLK
  5
5E
330
53
100
AcDbEntity
  8
0
100
AcDbBlockEnd
  0
BLOCK
  5
4F
330
45
100
AcDbEntity
  8
0
100
AcDbBlockBegin
  2
*D17
 70
     1
 10
0.0
 20
0.0
 30
0.0
  3
*D17
  1

  0
INSERT
  5
46
330
45
100
AcDbEntity
  8
DIMS
100
AcDbBlockReference
  2
_OPEN30
 10
136.4523791355999
 20
43.7713146418
 30
0.1
 41
2.5
 42
2.5
  0
INSERT
  5
47
330
45
100
AcDbEntity
  8
DIMS
100
AcDbBlockReference
  2
_OPEN30
 10
157.0523791356
 20
43.7713146418
 30
0.1
 41
2.5
 42
2.5
 50
180.0
  0
LINE
  5
48
330
45
100
AcDbEntity
  8
DIMS
100
AcDbLine
 10
136.4523791355999
 20
82.36380958199999
 30
0.0
 11
136.4523791355999
 21
42.7713146418
 31
0.0
  0
LINE
  5
49
330
45
100
AcDbEntity
  8
DIMS
100
AcDbLine
 10
157.0523791356
 20
57.638809582
 30
0.0
 11
157.0523791356
 21
42.7713146418
 31
0.0
  0
LINE
  5
4A
330
45
100
AcDbEntity
  8
DIMS
100
AcDbLine
 10
136.4523791355999
 20
43.7713146418
 30
0.0
 11
130.9523791355998
 21
43.7713146418
 31
0.0
  0
LINE
  5
4B
330
45
100
AcDbEntity
  8
DIMS
100
AcDbLine
 10
136.4523791355999
 20
43.7713146418
 30
0.0
 11
157.0523791356
 21
43.7713146418
 31
0.0
  0
LINE
  5
4C
330
45
100
AcDbEntity
  8
DIMS
100
AcDbLine
 10
157.0523791356
 20
43.7713146418
 30
0.0
 11
162.5523791356
 21
43.7713146418
 31
0.0
  0
MTEXT
  5
4D
330
45
100
AcDbEntity
  8
DIMS
100
AcDbMText
 10
138.7278169918999
 20
47.86410459909999
 30
0.0
 40
3.174999999999998
 41
0.0
 71
     1
 72
     1
  1
20.6
  7
SLDTEXTSTYLE0
 73
     1
 44
1.0
  0
MTEXT
  5
4E
330
45
100
AcDbEntity
  8
DIMS
100
AcDbMText
 10
147.222544472
 20
47.28211203079998
 30
0.0
 40
2.6458333333
 41
0.0
 71
     1
 72
     1
  1
±0.5
  7
SLDTEXTSTYLE0
 73
     1
 44
1.0
  0
ENDBLK
  5
50
330
45
100
AcDbEntity
  8
0
100
AcDbBlockEnd
  0
BLOCK
  5
41
330
38
100
AcDbEntity
  8
0
100
AcDbBlockBegin
  2
*D18
 70
     1
 10
0.0
 20
0.0
 30
0.0
  3
*D18
  1

  0
INSERT
  5
39
330
38
100
AcDbEntity
  8
DIMS
100
AcDbBlockReference
  2
_OPEN30
 10
115.4451341314
 20
66.688809582
 30
0.1
 41
2.5
 42
2.5
 50
270.0
  0
INSERT
  5
3A
330
38
100
AcDbEntity
  8
DIMS
100
AcDbBlockReference
  2
_OPEN30
 10
115.4451341314
 20
104.788809582
 30
0.1
 41
2.5
 42
2.5
 50
90.0
  0
LINE
  5
3B
330
38
100
AcDbEntity
  8
DIMS
100
AcDbLine
 10
155.2523791355999
 20
66.688809582
 30
0.0
 11
114.4451341314
 21
66.688809582
 31
0.0
  0
LINE
  5
3C
330
38
100
AcDbEntity
  8
DIMS
100
AcDbLine
 10
155.2523791355999
 20
104.788809582
 30
0.0
 11
114.4451341314
 21
104.788809582
 31
0.0
  0
LINE
  5
3D
330
38
100
AcDbEntity
  8
DIMS
100
AcDbLine
 10
115.4451341314
 20
66.688809582
 30
0.0
 11
115.4451341314
 21
104.788809582
 31
0.0
  0
MTEXT
  5
3E
330
38
100
AcDbEntity
  8
DIMS
100
AcDbMText
 10
111.3523441739999
 20
73.9407126606
 30
0.0
 40
3.174999999999998
 41
0.0
 71
     1
 72
     1
  1
%%c
  7
SLDTEXTSTYLE0
 11
0.0000000000000001
 21
1.0
 31
0.0
 73
     1
 44
1.0
  0
MTEXT
  5
3F
330
38
100
AcDbEntity
  8
DIMS
100
AcDbMText
 10
111.3523441739999
 20
77.96093158879997
 30
0.0
 40
3.174999999999998
 41
0.0
 71
     1
 72
     1
  1
38.1
  7
SLDTEXTSTYLE0
 11
0.0000000000000001
 21
1.0
 31
0.0
 73
     1
 44
1.0
  0
MTEXT
  5
40
330
38
100
AcDbEntity
  8
DIMS
100
AcDbMText
 10
111.9343367423999
 20
86.45565906879999
 30
0.0
 40
2.6458333333
 41
0.0
 71
     1
 72
     1
  1
±0.025
  7
SLDTEXTSTYLE0
 11
0.0000000000000001
 21
1.0
 31
0.0
 73
     1
 44
1.0
  0
ENDBLK
  5
42
330
38
100
AcDbEntity
  8
0
100
AcDbBlockEnd
  0
BLOCK
  5
316
330
30D
100
AcDbEntity
  8
0
100
AcDbBlockBegin
  2
*D19
 70
     1
 10
0.0
 20
0.0
 30
0.0
  3
*D19
  1

  0
ARC
  5
30E
330
30D
100
AcDbEntity
  8
DIMS
100
AcDbCircle
 10
211.718309008
 20
121.6726642
 30
0.0
 40
4.732312790379271
100
AcDbArc
 50
243.4349488229
 51
296.5650511770998
  0
ARC
  5
30F
330
30D
100
AcDbEntity
  8
DIMS
100
AcDbCircle
 10
211.718309008
 20
120.6149549639
 30
0.0
 40
4.732312790379259
100
AcDbArc
 50
63.43494882289999
 51
116.5650511771
  0
INSERT
  5
310
330
30D
100
AcDbEntity
  8
DIMS
100
AcDbBlockReference
  2
_OPEN30
 10
213.8346636259999
 20
128.548809582
 30
0.1
 41
2.5
 42
2.5
 50
90.0
  0
INSERT
  5
311
330
30D
100
AcDbEntity
  8
DIMS
100
AcDbBlockReference
  2
_OPEN30
 10
213.8346636259999
 20
113.738809582
 30
0.1
 41
2.5
 42
2.5
 50
270.0
  0
LINE
  5
312
330
30D
100
AcDbEntity
  8
DIMS
100
AcDbLine
 10
220.2623791356
 20
128.548809582
 30
0.0
 11
212.8346636259997
 21
128.548809582
 31
0.0
  0
LINE
  5
313
330
30D
100
AcDbEntity
  8
DIMS
100
AcDbLine
 10
221.3023791356
 20
113.738809582
 30
0.0
 11
212.8346636259997
 21
113.738809582
 31
0.0
  0
LINE
  5
314
330
30D
100
AcDbEntity
  8
DIMS
100
AcDbLine
 10
213.8346636259999
 20
128.548809582
 30
0.0
 11
213.8346636259999
 21
113.738809582
 31
0.0
  0
MTEXT
  5
315
330
30D
100
AcDbEntity
  8
DIMS
100
AcDbMText
 10
209.7418736685998
 20
119.0274549638999
 30
0.0
 40
3.174999999999998
 41
0.0
 71
     1
 72
     1
  1
15
  7
SLDTEXTSTYLE0
 11
-0.0000000000000062
 21
1.0
 31
0.0
 73
     1
 44
1.0
  0
ENDBLK
  5
317
330
30D
100
AcDbEntity
  8
0
100
AcDbBlockEnd
  0
BLOCK
  5
2BB
330
2B4
100
AcDbEntity
  8
0
100
AcDbBlockBegin
  2
*D20
 70
     1
 10
0.0
 20
0.0
 30
0.0
  3
*D20
  1

  0
INSERT
  5
2B5
330
2B4
100
AcDbEntity
  8
DIMS
100
AcDbBlockReference
  2
_OPEN30
 10
220.2523791356
 20
138.5488929211
 30
0.1
 41
2.5
 42
2.5
 50
180.0
  0
INSERT
  5
2B6
330
2B4
100
AcDbEntity
  8
DIMS
100
AcDbBlockReference
  2
_OPEN30
 10
256.8523791356
 20
138.5488929211
 30
0.1
 41
2.5
 42
2.5
  0
LINE
  5
2B7
330
2B4
100
AcDbEntity
  8
DIMS
100
AcDbLine
 10
220.2523791356
 20
128.5388095819999
 30
0.0
 11
220.2523791356
 21
139.5488929211
 31
0.0
  0
LINE
  5
2B8
330
2B4
100
AcDbEntity
  8
DIMS
100
AcDbLine
 10
256.8523791356
 20
120.3388250687
 30
0.0
 11
256.8523791356
 21
139.5488929211
 31
0.0
  0
LINE
  5
2B9
330
2B4
100
AcDbEntity
  8
DIMS
100
AcDbLine
 10
220.2523791356
 20
138.5488929211
 30
0.0
 11
256.8523791356
 21
138.5488929211
 31
0.0
  0
MTEXT
  5
2BA
330
2B4
100
AcDbEntity
  8
DIMS
100
AcDbMText
 10
234.9485923625
 20
142.6416828784
 30
0.0
 40
3.174999999999998
 41
0.0
 71
     1
 72
     1
  1
36.6
  7
SLDTEXTSTYLE0
 73
     1
 44
1.0
  0
ENDBLK
  5
2BC
330
2B4
100
AcDbEntity
  8
0
100
AcDbBlockEnd
  0
BLOCK
  5
30A
330
301
100
AcDbEntity
  8
0
100
AcDbBlockBegin
  2
*D21
 70
     1
 10
0.0
 20
0.0
 30
0.0
  3
*D21
  1

  0
INSERT
  5
302
330
301
100
AcDbEntity
  8
DIMS
100
AcDbBlockReference
  2
_OPEN30
 10
220.2523791356
 20
131.9083950435999
 30
0.1
 41
2.5
 42
2.5
  0
INSERT
  5
303
330
301
100
AcDbEntity
  8
DIMS
100
AcDbBlockReference
  2
_OPEN30
 10
234.8623791356
 20
131.9083950435999
 30
0.1
 41
2.5
 42
2.5
 50
180.0
  0
LINE
  5
304
330
301
100
AcDbEntity
  8
DIMS
100
AcDbLine
 10
220.2523791356
 20
128.5388095819999
 30
0.0
 11
220.2523791356
 21
132.9083950435999
 31
0.0
  0
LINE
  5
305
330
301
100
AcDbEntity
  8
DIMS
100
AcDbLine
 10
234.8623791356
 20
128.5488929211
 30
0.0
 11
234.8623791356
 21
132.9083950435999
 31
0.0
  0
LINE
  5
306
330
301
100
AcDbEntity
  8
DIMS
100
AcDbLine
 10
220.2523791356
 20
131.9083950435999
 30
0.0
 11
214.7523791356
 21
131.9083950435999
 31
0.0
  0
LINE
  5
307
330
301
100
AcDbEntity
  8
DIMS
100
AcDbLine
 10
220.2523791356
 20
131.9083950435999
 30
0.0
 11
234.8623791356
 21
131.9083950435999
 31
0.0
  0
LINE
  5
308
330
301
100
AcDbEntity
  8
DIMS
100
AcDbLine
 10
234.8623791356
 20
131.9083950435999
 30
0.0
 11
240.3623791356
 21
131.9083950435999
 31
0.0
  0
MTEXT
  5
309
330
301
100
AcDbEntity
  8
DIMS
100
AcDbMText
 10
223.9535923625
 20
136.001185001
 30
0.0
 40
3.174999999999998
 41
0.0
 71
     1
 72
     1
  1
14.6
  7
SLDTEXTSTYLE0
 73
     1
 44
1.0
  0
ENDBLK
  5
30B
330
301
100
AcDbEntity
  8
0
100
AcDbBlockEnd
  0
BLOCK
  5
25B
330
254
100
AcDbEntity
  8
0
100
AcDbBlockBegin
  2
*D22
 70
     1
 10
0.0
 20
0.0
 30
0.0
  3
*D22
  1

  0
INSERT
  5
255
330
254
100
AcDbEntity
  8
DIMS
100
AcDbBlockReference
  2
_OPEN30
 10
157.0523791356
 20
50.9052983355
 30
0.1
 41
2.5
 42
2.5
 50
180.0
  0
INSERT
  5
256
330
254
100
AcDbEntity
  8
DIMS
100
AcDbBlockReference
  2
_OPEN30
 10
232.8523791356
 20
50.9052983355
 30
0.1
 41
2.5
 42
2.5
  0
LINE
  5
257
330
254
100
AcDbEntity
  8
DIMS
100
AcDbLine
 10
157.0523791356
 20
57.638809582
 30
0.0
 11
157.0523791356
 21
49.9052983355
 31
0.0
  0
LINE
  5
258
330
254
100
AcDbEntity
  8
DIMS
100
AcDbLine
 10
232.8523791356
 20
57.1401946235
 30
0.0
 11
232.8523791356
 21
49.9052983355
 31
0.0
  0
LINE
  5
259
330
254
100
AcDbEntity
  8
DIMS
100
AcDbLine
 10
157.0523791356
 20
50.9052983355
 30
0.0
 11
232.8523791356
 21
50.9052983355
 31
0.0
  0
MTEXT
  5
25A
330
254
100
AcDbEntity
  8
DIMS
100
AcDbMText
 10
192.7542035369998
 20
54.9980882928
 30
0.0
 40
3.174999999999998
 41
0.0
 71
     1
 72
     1
  1
L1
  7
SLDTEXTSTYLE0
 73
     1
 44
1.0
  0
ENDBLK
  5
25C
330
254
100
AcDbEntity
  8
0
100
AcDbBlockEnd
  0
BLOCK
  5
24E
330
247
100
AcDbEntity
  8
0
100
AcDbBlockBegin
  2
*D23
 70
     1
 10
0.0
 20
0.0
 30
0.0
  3
*D23
  1

  0
INSERT
  5
248
330
247
100
AcDbEntity
  8
DIMS
100
AcDbBlockReference
  2
_OPEN30
 10
232.8523791356
 20
50.9052983355
 30
0.1
 41
2.5
 42
2.5
 50
180.0
  0
INSERT
  5
249
330
247
100
AcDbEntity
  8
DIMS
100
AcDbBlockReference
  2
_OPEN30
 10
256.8523791356
 20
50.9052983355
 30
0.1
 41
2.5
 42
2.5
  0
LINE
  5
24A
330
247
100
AcDbEntity
  8
DIMS
100
AcDbLine
 10
232.8523791356
 20
57.1401946235
 30
0.0
 11
232.8523791356
 21
49.9052983355
 31
0.0
  0
LINE
  5
24B
330
247
100
AcDbEntity
  8
DIMS
100
AcDbLine
 10
256.8523791356
 20
66.1388250687
 30
0.0
 11
256.8523791356
 21
49.9052983355
 31
0.0
  0
LINE
  5
24C
330
247
100
AcDbEntity
  8
DIMS
100
AcDbLine
 10
232.8523791356
 20
50.9052983355
 30
0.0
 11
256.8523791356
 21
50.9052983355
 31
0.0
  0
MTEXT
  5
24D
330
247
100
AcDbEntity
  8
DIMS
100
AcDbMText
 10
242.7360245176
 20
54.9980882928
 30
0.0
 40
3.174999999999998
 41
0.0
 71
     1
 72
     1
  1
24
  7
SLDTEXTSTYLE0
 73
     1
 44
1.0
  0
ENDBLK
  5
24F
330
247
100
AcDbEntity
  8
0
100
AcDbBlockEnd
  0
BLOCK
  5
22D
330
226
100
AcDbEntity
  8
0
100
AcDbBlockBegin
  2
*D24
 70
     1
 10
0.0
 20
0.0
 30
0.0
  3
*D24
  1

  0
INSERT
  5
227
330
226
100
AcDbEntity
  8
DIMS
100
AcDbBlockReference
  2
_OPEN30
 10
263.4512764387998
 20
85.738809582
 30
0.1
 41
2.5
 42
2.5
 50
270.0
  0
INSERT
  5
228
330
226
100
AcDbEntity
  8
DIMS
100
AcDbBlockReference
  2
_OPEN30
 10
263.4512764387998
 20
119.7388250687
 30
0.1
 41
2.5
 42
2.5
 50
90.0
  0
LINE
  5
229
330
226
100
AcDbEntity
  8
DIMS
100
AcDbLine
 10
258.9558749666999
 20
85.738809582
 30
0.0
 11
264.4512764388
 21
85.738809582
 31
0.0
  0
LINE
  5
22A
330
226
100
AcDbEntity
  8
DIMS
100
AcDbLine
 10
257.4523791356
 20
119.7388250687
 30
0.0
 11
264.4512764388
 21
119.7388250687
 31
0.0
  0
LINE
  5
22B
330
226
100
AcDbEntity
  8
DIMS
100
AcDbLine
 10
263.4512764387998
 20
85.738809582
 30
0.0
 11
263.4512764387998
 21
119.7388250687
 31
0.0
  0
MTEXT
  5
22C
330
226
100
AcDbEntity
  8
DIMS
100
AcDbMText
 10
259.3584864814999
 20
100.6224627072999
 30
0.0
 40
3.174999999999998
 41
0.0
 71
     1
 72
     1
  1
34
  7
SLDTEXTSTYLE0
 11
0.0000000000000001
 21
1.0
 31
0.0
 73
     1
 44
1.0
  0
ENDBLK
  5
22E
330
226
100
AcDbEntity
  8
0
100
AcDbBlockEnd
  0
BLOCK
  5
2A6
330
29F
100
AcDbEntity
  8
0
100
AcDbBlockBegin
  2
*D25
 70
     1
 10
0.0
 20
0.0
 30
0.0
  3
*D25
  1

  0
INSERT
  5
2A0
330
29F
100
AcDbEntity
  8
DIMS
100
AcDbBlockReference
  2
_OPEN30
 10
263.4512764387998
 20
85.738809582
 30
0.1
 41
2.5
 42
2.5
 50
90.0
  0
INSERT
  5
2A1
330
29F
100
AcDbEntity
  8
DIMS
100
AcDbBlockReference
  2
_OPEN30
 10
263.4512764387998
 20
66.7388250687
 30
0.1
 41
2.5
 42
2.5
 50
270.0
  0
LINE
  5
2A2
330
29F
100
AcDbEntity
  8
DIMS
100
AcDbLine
 10
258.9558749666999
 20
85.738809582
 30
0.0
 11
264.4512764388
 21
85.738809582
 31
0.0
  0
LINE
  5
2A3
330
29F
100
AcDbEntity
  8
DIMS
100
AcDbLine
 10
257.4523791356
 20
66.7388250687
 30
0.0
 11
264.4512764388
 21
66.7388250687
 31
0.0
  0
LINE
  5
2A4
330
29F
100
AcDbEntity
  8
DIMS
100
AcDbLine
 10
263.4512764387998
 20
85.738809582
 30
0.0
 11
263.4512764387998
 21
66.7388250687
 31
0.0
  0
MTEXT
  5
2A5
330
29F
100
AcDbEntity
  8
DIMS
100
AcDbMText
 10
259.3584864814999
 20
74.1224627073
 30
0.0
 40
3.174999999999998
 41
0.0
 71
     1
 72
     1
  1
19
  7
SLDTEXTSTYLE0
 11
-0.000000000000007
 21
1.0
 31
0.0
 73
     1
 44
1.0
  0
ENDBLK
  5
2A7
330
29F
100
AcDbEntity
  8
0
100
AcDbBlockEnd
  0
BLOCK
  5
223
330
21A
100
AcDbEntity
  8
0
100
AcDbBlockBegin
  2
*D26
 70
     1
 10
0.0
 20
0.0
 30
0.0
  3
*D26
  1

  0
ARC
  5
21B
330
21A
100
AcDbEntity
  8
DIMS
100
AcDbCircle
 10
268.5763406907
 20
107.6726642
 30
0.0
 40
4.732312790379322
100
AcDbArc
 50
243.4349488229
 51
296.5650511770998
  0
ARC
  5
21C
330
21A
100
AcDbEntity
  8
DIMS
100
AcDbCircle
 10
268.5763406907
 20
106.6149549638998
 30
0.0
 40
4.732312790379372
100
AcDbArc
 50
63.43494882289999
 51
116.5650511771
  0
INSERT
  5
21D
330
21A
100
AcDbEntity
  8
DIMS
100
AcDbBlockReference
  2
_OPEN30
 10
270.6926953086999
 20
128.548809582
 30
0.1
 41
2.5
 42
2.5
 50
90.0
  0
INSERT
  5
21E
330
21A
100
AcDbEntity
  8
DIMS
100
AcDbBlockReference
  2
_OPEN30
 10
270.6926953086999
 20
85.738809582
 30
0.1
 41
2.5
 42
2.5
 50
270.0
  0
LINE
  5
21F
330
21A
100
AcDbEntity
  8
DIMS
100
AcDbLine
 10
234.8623791356
 20
128.548809582
 30
0.0
 11
271.6926953086999
 21
128.548809582
 31
0.0
  0
LINE
  5
220
330
21A
100
AcDbEntity
  8
DIMS
100
AcDbLine
 10
258.9558749666999
 20
85.738809582
 30
0.0
 11
271.6926953086999
 21
85.738809582
 31
0.0
  0
LINE
  5
221
330
21A
100
AcDbEntity
  8
DIMS
100
AcDbLine
 10
270.6926953086999
 20
128.548809582
 30
0.0
 11
270.6926953086999
 21
85.738809582
 31
0.0
  0
MTEXT
  5
222
330
21A
100
AcDbEntity
  8
DIMS
100
AcDbMText
 10
266.5999053513
 20
105.0274549639
 30
0.0
 40
3.174999999999998
 41
0.0
 71
     1
 72
     1
  1
43
  7
SLDTEXTSTYLE0
 11
-0.000000000000007
 21
1.0
 31
0.0
 73
     1
 44
1.0
  0
ENDBLK
  5
224
330
21A
100
AcDbEntity
  8
0
100
AcDbBlockEnd
  0
BLOCK
  5
244
330
23C
100
AcDbEntity
  8
0
100
AcDbBlockBegin
  2
*D27
 70
     1
 10
0.0
 20
0.0
 30
0.0
  3
*D27
  1

  0
INSERT
  5
23D
330
23C
100
AcDbEntity
  8
DIMS
100
AcDbBlockReference
  2
_OPEN30
 10
157.0523791356
 20
43.7713146418
 30
0.1
 41
2.5
 42
2.5
 50
180.0
  0
INSERT
  5
23E
330
23C
100
AcDbEntity
  8
DIMS
100
AcDbBlockReference
  2
_OPEN30
 10
256.8523791356
 20
43.7713146418
 30
0.1
 41
2.5
 42
2.5
  0
LINE
  5
23F
330
23C
100
AcDbEntity
  8
DIMS
100
AcDbLine
 10
157.0523791356
 20
57.638809582
 30
0.0
 11
157.0523791356
 21
42.7713146418
 31
0.0
  0
LINE
  5
240
330
23C
100
AcDbEntity
  8
DIMS
100
AcDbLine
 10
256.8523791356
 20
66.1388250687
 30
0.0
 11
256.8523791356
 21
42.7713146418
 31
0.0
  0
LINE
  5
241
330
23C
100
AcDbEntity
  8
DIMS
100
AcDbLine
 10
157.0523791356
 20
43.7713146418
 30
0.0
 11
256.8523791356
 21
43.7713146418
 31
0.0
  0
MTEXT
  5
242
330
23C
100
AcDbEntity
  8
DIMS
100
AcDbMText
 10
202.6317428756
 20
47.86410459909999
 30
0.0
 40
3.174999999999998
 41
0.0
 71
     1
 72
     1
  1
L
  7
SLDTEXTSTYLE0
 73
     1
 44
1.0
  0
MTEXT
  5
243
330
23C
100
AcDbEntity
  8
DIMS
100
AcDbMText
 10
206.2001145974
 20
47.28211203079998
 30
0.0
 40
2.6458333333
 41
0.0
 71
     1
 72
     1
  1
±1
  7
SLDTEXTSTYLE0
 73
     1
 44
1.0
  0
ENDBLK
  5
245
330
23C
100
AcDbEntity
  8
0
100
AcDbBlockEnd
  0
BLOCK
  5
2D8
330
2CE
100
AcDbEntity
  8
0
100
AcDbBlockBegin
  2
*D28
 70
     1
 10
0.0
 20
0.0
 30
0.0
  3
*D28
  1

  0
INSERT
  5
2CF
330
2CE
100
AcDbEntity
  8
DIMS
100
AcDbBlockReference
  2
_OPEN30
 10
157.0523791356
 20
117.6635187860999
 30
0.1
 41
2.5
 42
2.5
  0
INSERT
  5
2D0
330
2CE
100
AcDbEntity
  8
DIMS
100
AcDbBlockReference
  2
_OPEN30
 10
162.0523791355998
 20
117.6635187860999
 30
0.1
 41
2.5
 42
2.5
 50
180.0
  0
LINE
  5
2D1
330
2CE
100
AcDbEntity
  8
DIMS
100
AcDbLine
 10
157.0523791356
 20
113.838809582
 30
0.0
 11
157.0523791356
 21
118.6635187860999
 31
0.0
  0
LINE
  5
2D2
330
2CE
100
AcDbEntity
  8
DIMS
100
AcDbLine
 10
162.0523791355998
 20
114.338809582
 30
0.0
 11
162.0523791355998
 21
118.6635187860999
 31
0.0
  0
LINE
  5
2D3
330
2CE
100
AcDbEntity
  8
DIMS
100
AcDbLine
 10
157.0523791356
 20
117.6635187860999
 30
0.0
 11
151.5523791356
 21
117.6635187860999
 31
0.0
  0
LINE
  5
2D4
330
2CE
100
AcDbEntity
  8
DIMS
100
AcDbLine
 10
157.0523791356
 20
117.6635187860999
 30
0.0
 11
162.0523791355998
 21
117.6635187860999
 31
0.0
  0
LINE
  5
2D5
330
2CE
100
AcDbEntity
  8
DIMS
100
AcDbLine
 10
162.0523791355998
 20
117.6635187860999
 30
0.0
 11
173.5536643129999
 21
117.6635187860999
 31
0.0
  0
MTEXT
  5
2D6
330
2CE
100
AcDbEntity
  8
DIMS
100
AcDbMText
 10
159.2460548489999
 20
121.7563087433999
 30
0.0
 40
3.174999999999998
 41
0.0
 71
     1
 72
     1
  1
5
  7
SLDTEXTSTYLE0
 73
     1
 44
1.0
  0
MTEXT
  5
2D7
330
2CE
100
AcDbEntity
  8
DIMS
100
AcDbMText
 10
162.6483421922
 20
121.1743161751
 30
0.0
 40
2.6458333333
 41
0.0
 71
     1
 72
     1
  1
±0.25
  7
SLDTEXTSTYLE0
 73
     1
 44
1.0
  0
ENDBLK
  5
2D9
330
2CE
100
AcDbEntity
  8
0
100
AcDbBlockEnd
  0
ENDSEC
  0
SECTION
  2
ENTITIES
  0
LINE
  5
25
330
2
100
AcDbEntity
  8
CENTER
100
AcDbLine
 10
259.2512526845
 20
172.5287133681
 30
0.0
 11
134.6950888332
 21
172.5287133681
 31
0.0
  0
LEADER
  5
28
330
2
100
AcDbEntity
  8
DIMS
100
AcDbLeader
  3
SLDDIMSTYLE14
 76
     3
 10
151.8562727025
 20
173.1342921506
 30
0.0
 10
145.0081152715085
 20
157.5437240592999
 30
0.0
 10
119.1524890536
 20
157.5437240592999
 30
0.0
  0
LINE
  5
31
330
2
100
AcDbEntity
  8
0
  6
Continuous
100
AcDbLine
 10
151.4814850283999
 20
170.7426562293
 30
0.0
 11
136.8523799224
 21
170.7426562293
 31
0.0
  0
LINE
  5
32
330
2
100
AcDbEntity
  8
0
  6
Continuous
100
AcDbLine
 10
136.8523799224
 20
174.3147705068999
 30
0.0
 11
151.4814850283999
 21
174.3147705068999
 31
0.0
  0
LINE
  5
33
330
2
100
AcDbEntity
  8
0
  6
Continuous
100
AcDbLine
 10
136.8523799224
 20
169.3537134065
 30
0.0
 11
155.5523791226
 21
169.3537134065
 31
0.0
  0
LINE
  5
34
330
2
100
AcDbEntity
  8
0
  6
Continuous
100
AcDbLine
 10
155.5523791226
 20
175.7037133297997
 30
0.0
 11
136.8523799224
 21
175.7037133297997
 31
0.0
  0
LINE
  5
35
330
2
100
AcDbEntity
  8
CENTER
100
AcDbLine
 10
258.3558749666999
 20
85.738809582
 30
0.0
 11
135.2640627304
 21
85.738809582
 31
0.0
  0
DIMENSION
  5
36
330
2
100
AcDbEntity
  8
DIMS
100
AcDbDimension
  2
*D18
 10
115.4451341314
 20
104.788809582
 30
0.0
 11
115.4451341314
 21
85.738809582
 31
0.0
 70
   128
  1
%%c<>
 71
     2
 42
-1.0
  3
SLDDIMSTYLE10
100
AcDbAlignedDimension
 13
155.8523791355999
 23
66.688809582
 33
0.0
 14
155.8523791355999
 24
104.788809582
 34
0.0
 50
90.0
100
AcDbRotatedDimension
  0
DIMENSION
  5
43
330
2
100
AcDbEntity
  8
DIMS
100
AcDbDimension
  2
*D17
 10
157.0523791356
 20
43.7713146418
 30
0.0
 11
146.7523791356
 21
43.7713146418
 31
0.0
 70
   128
 71
     2
 42
-1.0
  3
SLDDIMSTYLE9
100
AcDbAlignedDimension
 13
136.4523791355999
 23
82.963809582
 33
0.0
 14
157.0523791356
 24
58.238809582
 34
0.0
100
AcDbRotatedDimension
  0
DIMENSION
  5
51
330
2
100
AcDbEntity
  8
DIMS
100
AcDbDimension
  2
*D16
 10
157.0523791356
 20
50.9052983355
 30
0.0
 11
145.1295074841
 21
50.9052983355
 31
0.0
 70
   128
 71
     2
 42
-1.0
  3
SLDDIMSTYLE8
100
AcDbAlignedDimension
 13
155.5523791356
 23
66.988809582
 33
0.0
 14
157.0523791356
 24
58.238809582
 34
0.0
100
AcDbRotatedDimension
  0
DIMENSION
  5
5F
330
2
100
AcDbEntity
  8
DIMS
100
AcDbDimension
  2
*D15
 10
151.4814851691999
 20
93.25780228639999
 30
0.0
 11
143.9669321524
 21
93.25780228639999
 31
0.0
 70
   128
 71
     2
 42
-1.0
  3
SLDDIMSTYLE7
100
AcDbAlignedDimension
 13
136.4523791355999
 23
88.36380958200001
 33
0.0
 14
151.4814851691999
 24
88.36380958200001
 34
0.0
100
AcDbRotatedDimension
  0
DIMENSION
  5
6D
330
2
100
AcDbEntity
  8
DIMS
100
AcDbDimension
  2
*D13
 10
124.8520997995999
 20
82.56380958200002
 30
0.0
 11
124.8520997995999
 21
85.738809582
 31
0.0
 70
   128
  1
%%c<>
 71
     2
 42
-1.0
  3
SLDDIMSTYLE5
100
AcDbAlignedDimension
 13
151.9023791356
 23
88.913809582
 33
0.0
 14
136.8523791355999
 24
82.56380958200002
 34
0.0
 50
90.0
100
AcDbRotatedDimension
  0
LINE
  5
7E
330
2
100
AcDbEntity
  8
0
  6
Continuous
100
AcDbLine
 10
151.4814850283999
 20
88.36380954659999
 30
0.0
 11
136.8523799224
 21
88.36380954659999
 31
0.0
  0
LINE
  5
7F
330
2
100
AcDbEntity
  8
0
  6
Continuous
100
AcDbLine
 10
136.8523799224
 20
82.56380962029998
 30
0.0
 11
155.5523791226
 21
82.56380962029998
 31
0.0
  0
LINE
  5
80
330
2
100
AcDbEntity
  8
CENTER
100
AcDbLine
 10
70.7247999642
 20
56.56346933729999
 30
0.0
 11
70.7247999642
 21
130.0925026078
 31
0.0
  0
INSERT
  5
81
330
2
100
AcDbEntity
  8
CENTER
100
AcDbBlockReference
  2
SW_CENTERMARKSYMBOL_1
 10
94.29479996419999
 20
109.308809582
 30
0.0
  0
INSERT
  5
8D
330
2
100
AcDbEntity
  8
CENTER
100
AcDbBlockReference
  2
SW_CENTERMARKSYMBOL_0
 10
47.1547999642
 20
109.308809582
 30
0.0
  0
DIMENSION
  5
99
330
2
100
AcDbEntity
  8
DIMS
100
AcDbDimension
  2
*D5
 10
20.7247999642
 20
57.73880958199999
 30
0.0
 11
20.7247999642
 21
93.14380958200001
 31
0.0
 70
   128
  1
(<>)
 71
     2
 42
-1.0
  3
SLDDIMSTYLE3
100
AcDbAlignedDimension
 13
56.8247999642
 23
128.548809582
 33
0.0
 14
47.2247999642
 24
57.73880958199999
 34
0.0
 50
90.0
100
AcDbRotatedDimension
  0
DIMENSION
  5
A6
330
2
100
AcDbEntity
  8
DIMS
100
AcDbDimension
  2
*D4
 10
36.1998655517
 20
62.168809582
 30
0.0
 11
36.1998655517
 21
85.738809582
 31
0.0
 70
   128
 71
     2
 42
-1.0
  3
SLDDIMSTYLE2
100
AcDbAlignedDimension
 13
42.4047999642
 23
109.308809582
 33
0.0
 14
42.4047999642
 24
62.168809582
 34
0.0
 50
90.0
100
AcDbRotatedDimension
  0
DIMENSION
  5
B2
330
2
100
AcDbEntity
  8
DIMS
100
AcDbDimension
  2
*D2
 10
28.66830060699999
 20
57.73880958199999
 30
0.0
 11
28.66830060699999
 21
85.738809582
 31
0.0
 70
   128
 71
     2
 42
-1.0
  3
SLDDIMSTYLE1
100
AcDbAlignedDimension
 13
47.2247999642
 23
113.738809582
 33
0.0
 14
47.2247999642
 24
57.73880958199999
 34
0.0
 50
90.0
100
AcDbRotatedDimension
  0
LINE
  5
BE
330
2
100
AcDbEntity
  8
0
  6
Continuous
100
AcDbLine
 10
42.7247991
 20
62.2388103866
 30
0.0
 11
42.7247991
 21
109.2388087772999
 31
0.0
  0
LINE
  5
BF
330
2
100
AcDbEntity
  8
0
  6
Continuous
100
AcDbLine
 10
98.72480082850001
 20
109.2388087772999
 30
0.0
 11
98.72480082850001
 21
62.2388103866
 31
0.0
  0
LINE
  5
C0
330
2
100
AcDbEntity
  8
0
  6
Continuous
100
AcDbLine
 10
98.2247998152
 20
62.2388103866
 30
0.0
 11
98.2247998152
 21
109.2388087772999
 31
0.0
  0
LINE
  5
C1
330
2
100
AcDbEntity
  8
0
  6
Continuous
100
AcDbLine
 10
43.22480011329999
 20
109.2388087772999
 30
0.0
 11
43.22480011329999
 21
62.2388103866
 31
0.0
  0
DIMENSION
  5
C2
330
2
100
AcDbEntity
  8
DIMS
100
AcDbDimension
  2
*D3
 10
94.29479996419999
 20
49.8928824585
 30
0.0
 11
70.7247999642
 21
49.8928824585
 31
0.0
 70
   128
 71
     2
 42
-1.0
  3
SLDDIMSTYLE2
100
AcDbAlignedDimension
 13
47.1547999642
 23
57.418809582
 33
0.0
 14
94.29479996419999
 24
57.418809582
 34
0.0
100
AcDbRotatedDimension
  0
DIMENSION
  5
CD
330
2
100
AcDbEntity
  8
DIMS
100
AcDbDimension
  2
*D1
 10
98.7247999642
 20
43.6344105692
 30
0.0
 11
70.7247999642
 21
43.6344105692
 31
0.0
 70
   128
 71
     2
 42
-1.0
  3
SLDDIMSTYLE0
100
AcDbAlignedDimension
 13
42.7247999642
 23
62.23880958199998
 33
0.0
 14
98.7247999642
 24
62.23880958199998
 34
0.0
100
AcDbRotatedDimension
  0
MTEXT
  5
D9
330
2
100
AcDbEntity
  8
0
  6
Continuous
100
AcDbMText
 10
42.0707373324
 20
16.3503183174
 30
0.0
 40
3.5
 41
0.0
 71
     1
 72
     1
  1
CM1-□-23S30C
  7
SLDTEXTSTYLE0
 73
     1
 44
1.0
  0
MTEXT
  5
DA
330
2
100
AcDbEntity
  8
0
  6
Continuous
100
AcDbMText
 10
42.1971261876
 20
24.35031831739999
 30
0.0
 40
3.5
 41
0.0
 71
     1
 72
     1
  1
CM1-□-23L20C
  7
SLDTEXTSTYLE0
 73
     1
 44
1.0
  0
MTEXT
  5
DB
330
2
100
AcDbEntity
  8
0
  6
Continuous
100
AcDbMText
 10
45.52941977999998
 20
32.35031831739998
 30
0.0
 40
3.5
 41
0.0
 71
     1
 72
     1
  1
Model　Name
  7
SLDTEXTSTYLE0
 73
     1
 44
1.0
  0
LINE
  5
DC
330
2
100
AcDbEntity
  8
0
  6
Continuous
100
AcDbLine
 10
34.6113708773
 20
18.1339958525
 30
0.0
 11
118.7405241127999
 21
18.1339958525
 31
0.0
  0
LINE
  5
DD
330
2
100
AcDbEntity
  8
0
  6
Continuous
100
AcDbLine
 10
34.6113708773
 20
26.1339958525
 30
0.0
 11
118.7405241127999
 21
26.1339958525
 31
0.0
  0
LINE
  5
DE
330
2
100
AcDbEntity
  8
0
  6
Continuous
100
AcDbLine
 10
118.7405241127999
 20
34.1339958525
 30
0.0
 11
34.6113708773
 21
34.1339958525
 31
0.0
  0
LINE
  5
DF
330
2
100
AcDbEntity
  8
0
  6
Continuous
100
AcDbLine
 10
34.6113708773
 20
10.13399585249999
 30
0.0
 11
118.7405241127999
 21
10.13399585249999
 31
0.0
  0
LINE
  5
E0
330
2
100
AcDbEntity
  8
CENTER
100
AcDbLine
 10
39.32425790799999
 20
85.738809582
 30
0.0
 11
102.1619743104998
 21
85.738809582
 31
0.0
  0
LINE
  5
E1
330
2
100
AcDbEntity
  8
0
  6
Continuous
100
AcDbLine
 10
94.2247991596
 20
57.7388087177
 30
0.0
 11
47.2248007689
 21
57.7388087177
 31
0.0
  0
LINE
  5
E2
330
2
100
AcDbEntity
  8
0
  6
Continuous
100
AcDbLine
 10
47.2248007689
 20
58.238809731
 30
0.0
 11
94.2247991596
 21
58.238809731
 31
0.0
  0
CIRCLE
  5
E3
330
2
100
AcDbEntity
  8
0
  6
Continuous
100
AcDbCircle
 10
70.7247999642
 20
85.738809582
 30
0.0
 40
19.05000000000001
  0
ARC
  5
E4
330
2
100
AcDbEntity
  8
0
  6
Continuous
100
AcDbCircle
 10
70.7247999642
 20
85.738809582
 30
0.0
 40
16.0
100
AcDbArc
 50
161.9405439606
 51
258.0594560394
  0
ARC
  5
E5
330
2
100
AcDbEntity
  8
0
  6
Continuous
100
AcDbCircle
 10
56.9391375889
 20
90.23386385020002
 30
0.0
 40
1.5
100
AcDbArc
 50
60.0
 51
161.9405439606
  0
CIRCLE
  5
E6
330
2
100
AcDbEntity
  8
0
  6
Continuous
100
AcDbCircle
 10
70.7247999642
 20
85.738809582
 30
0.0
 40
18.75000000000001
  0
LINE
  5
E7
330
2
100
AcDbEntity
  8
0
  6
Continuous
100
AcDbLine
 10
34.6113708773
 20
34.1339958525
 30
0.0
 11
34.6113708773
 21
10.13399585249999
 31
0.0
  0
CIRCLE
  5
E8
330
2
100
AcDbEntity
  8
0
  6
Continuous
100
AcDbCircle
 10
47.1547999642
 20
70.08880958199998
 30
0.0
 40
3.1
  0
INSERT
  5
E9
330
2
100
AcDbEntity
  8
CENTER
100
AcDbBlockReference
  2
SW_CENTERMARKSYMBOL_2
 10
47.1547999642
 20
62.168809582
 30
0.0
  0
ARC
  5
F5
330
2
100
AcDbEntity
  8
0
  6
Continuous
100
AcDbCircle
 10
47.2247999642
 20
62.23880958199998
 30
0.0
 40
4.500000000000011
100
AcDbArc
 50
180.0
 51
270.0
  0
ARC
  5
F6
330
2
100
AcDbEntity
  8
0
  6
Continuous
100
AcDbCircle
 10
47.2247999642
 20
62.23880958199998
 30
0.0
 40
4.000000000000006
100
AcDbArc
 50
180.0
 51
270.0
  0
CIRCLE
  5
F7
330
2
100
AcDbEntity
  8
0
  6
Continuous
100
AcDbCircle
 10
47.1547999642
 20
62.168809582
 30
0.0
 40
2.249999999999993
  0
ARC
  5
F8
330
2
100
AcDbEntity
  8
0
  6
Continuous
100
AcDbCircle
 10
46.3047999642
 20
69.238809582
 30
0.0
 40
0.5999999999999944
100
AcDbArc
 50
0.0
 51
90.0
  0
ARC
  5
F9
330
2
100
AcDbEntity
  8
0
  6
Continuous
100
AcDbCircle
 10
47.1547999642
 20
70.08880958199998
 30
0.0
 40
1.749999999999993
100
AcDbArc
 50
81.78678929829997
 51
98.2132107017
  0
ARC
  5
FA
330
2
100
AcDbEntity
  8
0
  6
Continuous
100
AcDbCircle
 10
47.1547999642
 20
70.08880958199998
 30
0.0
 40
1.750000000000006
100
AcDbArc
 50
261.7867892982999
 51
278.2132107016999
  0
ARC
  5
FB
330
2
100
AcDbEntity
  8
0
  6
Continuous
100
AcDbCircle
 10
46.3047999642
 20
70.938809582
 30
0.0
 40
0.5999999999999944
100
AcDbArc
 50
270.0
 51
0.0
  0
LINE
  5
FC
330
2
100
AcDbEntity
  8
0
  6
Continuous
100
AcDbLine
 10
46.90480019489998
 20
68.3567596489
 30
0.0
 11
46.90480019489998
 21
69.2388096714
 31
0.0
  0
LINE
  5
FD
330
2
100
AcDbEntity
  8
0
  6
Continuous
100
AcDbLine
 10
46.30479935149999
 20
69.8388086521
 30
0.0
 11
45.42274932899999
 21
69.8388086521
 31
0.0
  0
ARC
  5
FE
330
2
100
AcDbEntity
  8
0
  6
Continuous
100
AcDbCircle
 10
47.1547999642
 20
70.08880958199998
 30
0.0
 40
1.750000000000006
100
AcDbArc
 50
171.7867892983
 51
188.2132107016999
  0
LINE
  5
FF
330
2
100
AcDbEntity
  8
0
  6
Continuous
100
AcDbLine
 10
46.30479935149999
 20
70.3388096654
 30
0.0
 11
45.42274932899999
 21
70.3388096654
 31
0.0
  0
LINE
  5
100
330
2
100
AcDbEntity
  8
0
  6
Continuous
100
AcDbLine
 10
46.90480019489998
 20
70.93880957749998
 30
0.0
 11
46.90480019489998
 21
71.82086053129999
 31
0.0
  0
ARC
  5
101
330
2
100
AcDbEntity
  8
0
  6
Continuous
100
AcDbCircle
 10
47.1547999642
 20
70.08880958199998
 30
0.0
 40
1.749999999999999
100
AcDbArc
 50
351.7867892982998
 51
8.213210701699999
  0
LINE
  5
102
330
2
100
AcDbEntity
  8
0
  6
Continuous
100
AcDbLine
 10
48.8868502114
 20
70.3388096654
 30
0.0
 11
48.004800189
 21
70.3388096654
 31
0.0
  0
LINE
  5
103
330
2
100
AcDbEntity
  8
0
  6
Continuous
100
AcDbLine
 10
47.4047993455
 20
68.3567596489
 30
0.0
 11
47.4047993455
 21
69.2388096714
 31
0.0
  0
LINE
  5
104
330
2
100
AcDbEntity
  8
0
  6
Continuous
100
AcDbLine
 10
48.8868502114
 20
69.8388086521
 30
0.0
 11
48.004800189
 21
69.8388086521
 31
0.0
  0
LINE
  5
105
330
2
100
AcDbEntity
  8
0
  6
Continuous
100
AcDbLine
 10
47.4047993455
 20
70.93880957749998
 30
0.0
 11
47.4047993455
 21
71.82086053129999
 31
0.0
  0
ARC
  5
106
330
2
100
AcDbEntity
  8
0
  6
Continuous
100
AcDbCircle
 10
48.0047999642
 20
70.938809582
 30
0.0
 40
0.5999999999999944
100
AcDbArc
 50
180.0
 51
270.0
  0
ARC
  5
107
330
2
100
AcDbEntity
  8
0
  6
Continuous
100
AcDbCircle
 10
48.0047999642
 20
69.238809582
 30
0.0
 40
0.5999999999999944
100
AcDbArc
 50
90.0
 51
180.0
  0
CIRCLE
  5
108
330
2
100
AcDbEntity
  8
0
  6
Continuous
100
AcDbCircle
 10
47.1547999642
 20
101.388809582
 30
0.0
 40
3.099999999999993
  0
ARC
  5
109
330
2
100
AcDbEntity
  8
0
  6
Continuous
100
AcDbCircle
 10
48.0047999642
 20
100.538809582
 30
0.0
 40
0.5999999999999944
100
AcDbArc
 50
90.0
 51
180.0
  0
ARC
  5
10A
330
2
100
AcDbEntity
  8
0
  6
Continuous
100
AcDbCircle
 10
46.3047999642
 20
100.538809582
 30
0.0
 40
0.5999999999999944
100
AcDbArc
 50
0.0
 51
90.0
  0
ARC
  5
10B
330
2
100
AcDbEntity
  8
0
  6
Continuous
100
AcDbCircle
 10
47.1547999642
 20
101.388809582
 30
0.0
 40
1.749999999999993
100
AcDbArc
 50
261.7867892982999
 51
278.2132107016999
  0
LINE
  5
10C
330
2
100
AcDbEntity
  8
0
  6
Continuous
100
AcDbLine
 10
46.90480019489998
 20
99.65675863260001
 30
0.0
 11
46.90480019489998
 21
100.5388095864
 31
0.0
  0
LINE
  5
10D
330
2
100
AcDbEntity
  8
0
  6
Continuous
100
AcDbLine
 10
47.4047993455
 20
99.65675863260001
 30
0.0
 11
47.4047993455
 21
100.5388095864
 31
0.0
  0
ARC
  5
10E
330
2
100
AcDbEntity
  8
0
  6
Continuous
100
AcDbCircle
 10
46.3047999642
 20
102.238809582
 30
0.0
 40
0.6000000000000087
100
AcDbArc
 50
270.0
 51
0.0
  0
ARC
  5
10F
330
2
100
AcDbEntity
  8
0
  6
Continuous
100
AcDbCircle
 10
47.1547999642
 20
101.388809582
 30
0.0
 40
1.750000000000019
100
AcDbArc
 50
81.78678929829997
 51
98.2132107017
  0
LINE
  5
110
330
2
100
AcDbEntity
  8
0
  6
Continuous
100
AcDbLine
 10
46.30479935149999
 20
101.1388094985
 30
0.0
 11
45.42274932899999
 21
101.1388094985
 31
0.0
  0
ARC
  5
111
330
2
100
AcDbEntity
  8
0
  6
Continuous
100
AcDbCircle
 10
47.1547999642
 20
101.388809582
 30
0.0
 40
1.750000000000006
100
AcDbArc
 50
171.7867892983
 51
188.2132107016999
  0
LINE
  5
112
330
2
100
AcDbEntity
  8
0
  6
Continuous
100
AcDbLine
 10
46.30479935149999
 20
101.6388105118
 30
0.0
 11
45.42274932899999
 21
101.6388105118
 31
0.0
  0
LINE
  5
113
330
2
100
AcDbEntity
  8
0
  6
Continuous
100
AcDbLine
 10
46.90480019489998
 20
102.2388094924999
 30
0.0
 11
46.90480019489998
 21
103.120859515
 31
0.0
  0
LINE
  5
114
330
2
100
AcDbEntity
  8
0
  6
Continuous
100
AcDbLine
 10
48.8868502114
 20
101.6388105118
 30
0.0
 11
48.004800189
 21
101.6388105118
 31
0.0
  0
ARC
  5
115
330
2
100
AcDbEntity
  8
0
  6
Continuous
100
AcDbCircle
 10
47.1547999642
 20
101.388809582
 30
0.0
 40
1.749999999999999
100
AcDbArc
 50
351.7867892982998
 51
8.213210701699999
  0
LINE
  5
116
330
2
100
AcDbEntity
  8
0
  6
Continuous
100
AcDbLine
 10
48.8868502114
 20
101.1388094985
 30
0.0
 11
48.004800189
 21
101.1388094985
 31
0.0
  0
LINE
  5
117
330
2
100
AcDbEntity
  8
0
  6
Continuous
100
AcDbLine
 10
47.4047993455
 20
102.2388094924999
 30
0.0
 11
47.4047993455
 21
103.120859515
 31
0.0
  0
ARC
  5
118
330
2
100
AcDbEntity
  8
0
  6
Continuous
100
AcDbCircle
 10
48.0047999642
 20
102.238809582
 30
0.0
 40
0.6000000000000087
100
AcDbArc
 50
180.0
 51
270.0
  0
LINE
  5
119
330
2
100
AcDbEntity
  8
0
  6
Continuous
100
AcDbLine
 10
78.74052411279999
 20
34.1339958525
 30
0.0
 11
78.74052411279999
 21
10.13399585249999
 31
0.0
  0
MTEXT
  5
11A
330
2
100
AcDbEntity
  8
0
  6
Continuous
100
AcDbMText
 10
86.7037186153
 20
24.35031831739999
 30
0.0
 40
3.5
 41
0.0
 71
     1
 72
     1
  1
76
  7
SLDTEXTSTYLE0
 73
     1
 44
1.0
  0
LINE
  5
11B
330
2
100
AcDbEntity
  8
0
  6
Continuous
100
AcDbLine
 10
98.7405241128
 20
34.1339958525
 30
0.0
 11
98.7405241128
 21
10.13399585249999
 31
0.0
  0
MTEXT
  5
11C
330
2
100
AcDbEntity
  8
0
  6
Continuous
100
AcDbMText
 10
86.7037186153
 20
16.3503183174
 30
0.0
 40
3.5
 41
0.0
 71
     1
 72
     1
  1
42
  7
SLDTEXTSTYLE0
 73
     1
 44
1.0
  0
MTEXT
  5
11D
330
2
100
AcDbEntity
  8
0
  6
Continuous
100
AcDbMText
 10
86.62351008839998
 20
32.35031831739998
 30
0.0
 40
3.5
 41
0.0
 71
     1
 72
     1
  1
L1
  7
SLDTEXTSTYLE0
 73
     1
 44
1.0
  0
MTEXT
  5
11E
330
2
100
AcDbEntity
  8
0
  6
Continuous
100
AcDbMText
 10
105.6853157502
 20
24.35031831739999
 30
0.0
 40
3.5
 41
0.0
 71
     1
 72
     1
  1
100
  7
SLDTEXTSTYLE0
 73
     1
 44
1.0
  0
LINE
  5
11F
330
2
100
AcDbEntity
  8
0
  6
Continuous
100
AcDbLine
 10
118.7405241127999
 20
10.13399585249999
 30
0.0
 11
118.7405241127999
 21
34.1339958525
 31
0.0
  0
MTEXT
  5
120
330
2
100
AcDbEntity
  8
0
  6
Continuous
100
AcDbMText
 10
106.7037186153
 20
16.3503183174
 30
0.0
 40
3.5
 41
0.0
 71
     1
 72
     1
  1
66
  7
SLDTEXTSTYLE0
 73
     1
 44
1.0
  0
MTEXT
  5
121
330
2
100
AcDbEntity
  8
0
  6
Continuous
100
AcDbMText
 10
107.6419129535999
 20
32.35031831739998
 30
0.0
 40
3.5
 41
0.0
 71
     1
 72
     1
  1
L
  7
SLDTEXTSTYLE0
 73
     1
 44
1.0
  0
CIRCLE
  5
122
330
2
100
AcDbEntity
  8
0
  6
Continuous
100
AcDbCircle
 10
94.29479996419999
 20
70.08880958199998
 30
0.0
 40
3.099999999999993
  0
LINE
  5
123
330
2
100
AcDbEntity
  8
0
  6
Continuous
100
AcDbLine
 10
69.22479995119998
 20
73.60414861529999
 30
0.0
 11
69.22479995119998
 21
71.55254836020002
 31
0.0
  0
ARC
  5
124
330
2
100
AcDbEntity
  8
0
  6
Continuous
100
AcDbCircle
 10
70.7247999642
 20
85.738809582
 30
0.0
 40
16.00000000000001
100
AcDbArc
 50
281.9405439606
 51
18.0594560394
  0
LINE
  5
125
330
2
100
AcDbEntity
  8
0
  6
Continuous
100
AcDbLine
 10
72.22479997729998
 20
73.60414861529999
 30
0.0
 11
72.22479997729998
 21
71.55254836020002
 31
0.0
  0
ARC
  5
126
330
2
100
AcDbEntity
  8
0
  6
Continuous
100
AcDbCircle
 10
73.7247999642
 20
71.5525486228
 30
0.0
 40
1.500000000000014
100
AcDbArc
 50
180.0
 51
281.9405439606
  0
ARC
  5
127
330
2
100
AcDbEntity
  8
0
  6
Continuous
100
AcDbCircle
 10
67.7247999642
 20
71.5525486228
 30
0.0
 40
1.500000000000006
100
AcDbArc
 50
258.0594560394
 51
360.0
  0
INSERT
  5
128
330
2
100
AcDbEntity
  8
CENTER
100
AcDbBlockReference
  2
SW_CENTERMARKSYMBOL_3
 10
94.29479996419999
 20
62.168809582
 30
0.0
  0
CIRCLE
  5
134
330
2
100
AcDbEntity
  8
0
  6
Continuous
100
AcDbCircle
 10
94.29479996419999
 20
62.168809582
 30
0.0
 40
2.25
  0
ARC
  5
135
330
2
100
AcDbEntity
  8
0
  6
Continuous
100
AcDbCircle
 10
94.22479996419999
 20
62.23880958199998
 30
0.0
 40
4.5
100
AcDbArc
 50
270.0
 51
0.0
  0
ARC
  5
136
330
2
100
AcDbEntity
  8
0
  6
Continuous
100
AcDbCircle
 10
94.22479996419999
 20
62.23880958199998
 30
0.0
 40
3.999999999999993
100
AcDbArc
 50
270.0
 51
0.0
  0
LINE
  5
137
330
2
100
AcDbEntity
  8
0
  6
Continuous
100
AcDbLine
 10
93.44479973950001
 20
69.8388086521
 30
0.0
 11
92.56274971709999
 21
69.8388086521
 31
0.0
  0
LINE
  5
138
330
2
100
AcDbEntity
  8
0
  6
Continuous
100
AcDbLine
 10
93.44479973950001
 20
70.3388096654
 30
0.0
 11
92.56274971709999
 21
70.3388096654
 31
0.0
  0
ARC
  5
139
330
2
100
AcDbEntity
  8
0
  6
Continuous
100
AcDbCircle
 10
94.29479996419999
 20
70.08880958199998
 30
0.0
 40
1.75
100
AcDbArc
 50
171.7867892983
 51
188.2132107016999
  0
LINE
  5
13A
330
2
100
AcDbEntity
  8
0
  6
Continuous
100
AcDbLine
 10
96.02685059950001
 20
70.3388096654
 30
0.0
 11
95.14480057700001
 21
70.3388096654
 31
0.0
  0
LINE
  5
13B
330
2
100
AcDbEntity
  8
0
  6
Continuous
100
AcDbLine
 10
94.54479973359999
 20
68.3567596489
 30
0.0
 11
94.54479973359999
 21
69.2388096714
 31
0.0
  0
ARC
  5
13C
330
2
100
AcDbEntity
  8
0
  6
Continuous
100
AcDbCircle
 10
94.29479996419999
 20
70.08880958199998
 30
0.0
 40
1.750000000000019
100
AcDbArc
 50
261.7867892982999
 51
278.2132107016999
  0
LINE
  5
13D
330
2
100
AcDbEntity
  8
0
  6
Continuous
100
AcDbLine
 10
94.04480058290001
 20
68.3567596489
 30
0.0
 11
94.04480058290001
 21
69.2388096714
 31
0.0
  0
ARC
  5
13E
330
2
100
AcDbEntity
  8
0
  6
Continuous
100
AcDbCircle
 10
93.4447999642
 20
69.238809582
 30
0.0
 40
0.5999999999999944
100
AcDbArc
 50
0.0
 51
90.0
  0
ARC
  5
13F
330
2
100
AcDbEntity
  8
0
  6
Continuous
100
AcDbCircle
 10
93.4447999642
 20
70.938809582
 30
0.0
 40
0.5999999999999801
100
AcDbArc
 50
270.0
 51
0.0
  0
LINE
  5
140
330
2
100
AcDbEntity
  8
0
  6
Continuous
100
AcDbLine
 10
94.04480058290001
 20
70.93880957749998
 30
0.0
 11
94.04480058290001
 21
71.82086053129999
 31
0.0
  0
ARC
  5
141
330
2
100
AcDbEntity
  8
0
  6
Continuous
100
AcDbCircle
 10
94.29479996419999
 20
70.08880958199998
 30
0.0
 40
1.749999999999993
100
AcDbArc
 50
81.78678929829997
 51
98.2132107017
  0
LINE
  5
142
330
2
100
AcDbEntity
  8
0
  6
Continuous
100
AcDbLine
 10
94.54479973359999
 20
70.93880957749998
 30
0.0
 11
94.54479973359999
 21
71.82086053129999
 31
0.0
  0
ARC
  5
143
330
2
100
AcDbEntity
  8
0
  6
Continuous
100
AcDbCircle
 10
95.1447999642
 20
70.938809582
 30
0.0
 40
0.5999999999999944
100
AcDbArc
 50
180.0
 51
270.0
  0
ARC
  5
144
330
2
100
AcDbEntity
  8
0
  6
Continuous
100
AcDbCircle
 10
94.29479996419999
 20
70.08880958199998
 30
0.0
 40
1.750000000000014
100
AcDbArc
 50
351.7867892982998
 51
8.213210701699999
  0
LINE
  5
145
330
2
100
AcDbEntity
  8
0
  6
Continuous
100
AcDbLine
 10
96.02685059950001
 20
69.8388086521
 30
0.0
 11
95.14480057700001
 21
69.8388086521
 31
0.0
  0
ARC
  5
146
330
2
100
AcDbEntity
  8
0
  6
Continuous
100
AcDbCircle
 10
95.1447999642
 20
69.238809582
 30
0.0
 40
0.5999999999999944
100
AcDbArc
 50
90.0
 51
180.0
  0
ARC
  5
147
330
2
100
AcDbEntity
  8
0
  6
Continuous
100
AcDbCircle
 10
70.7247999642
 20
85.738809582
 30
0.0
 40
11.0
100
AcDbArc
 50
283.8865403626
 51
16.1134596374
  0
ARC
  5
148
330
2
100
AcDbEntity
  8
0
  6
Continuous
100
AcDbCircle
 10
79.7337247427
 20
94.40421634309997
 30
0.0
 40
1.500000000000011
100
AcDbArc
 50
223.8865403625998
 51
300.0
  0
ARC
  5
149
330
2
100
AcDbEntity
  8
0
  6
Continuous
100
AcDbCircle
 10
70.7247999642
 20
85.738809582
 30
0.0
 40
16.0
100
AcDbArc
 50
41.94054396059999
 51
138.0594560393999
  0
ARC
  5
14A
330
2
100
AcDbEntity
  8
0
  6
Continuous
100
AcDbCircle
 10
70.7247999642
 20
85.738809582
 30
0.0
 40
3.999999100000108
100
AcDbArc
 50
120.8101641436
 51
179.1898358563999
  0
ARC
  5
14B
330
2
100
AcDbEntity
  8
0
  6
Continuous
100
AcDbCircle
 10
70.7247999642
 20
85.738809582
 30
0.0
 40
3.999999100000136
100
AcDbArc
 50
0.8101641435999999
 51
59.1898358564
  0
ARC
  5
14C
330
2
100
AcDbEntity
  8
0
  6
Continuous
100
AcDbCircle
 10
70.7247999642
 20
85.738809582
 30
0.0
 40
11.0
100
AcDbArc
 50
163.8865403626
 51
256.1134596373999
  0
SPLINE
  5
14D
330
2
100
AcDbEntity
  8
0
  6
Continuous
100
AcDbSpline
210
0.0
220
0.0
230
1.0
 70
     8
 71
     3
 72
    16
 73
    12
 74
     0
 42
0.0000000001
 43
0.0000000001
 40
0.0
 40
0.0
 40
0.0
 40
0.0
 40
0.2499999999999999
 40
0.2499999999999999
 40
0.5
 40
0.5
 40
0.625
 40
0.625
 40
0.75
 40
0.75
 40
1.0
 40
1.0
 40
1.0
 40
1.0
 10
68.93874285429617
 20
88.36380958195032
 30
0.0
 10
69.18963563411134
 20
88.53451770889275
 30
0.0
 10
69.46543259830955
 20
88.67085930720293
 30
0.0
 10
70.07553048962035
 20
88.86312885229679
 30
0.0
 10
70.3933974555807
 20
88.91353275861048
 30
0.0
 10
70.88650701653631
 20
88.91394631869607
 30
0.0
 10
71.04821936485116
 20
88.90139975169208
 30
0.0
 10
71.36666557354482
 20
88.85242247215272
 30
0.0
 10
71.52481080842341
 20
88.81548887004681
 30
0.0
 10
71.98046902771753
 20
88.67229068355159
 30
0.0
 10
72.25973260835963
 20
88.53467534868808
 30
0.0
 10
72.51085707419452
 20
88.36380958195036
 30
0.0
  0
ARC
  5
14E
330
2
100
AcDbEntity
  8
0
  6
Continuous
100
AcDbCircle
 10
70.7247999642
 20
85.738809582
 30
0.0
 40
3.175000000000004
100
AcDbArc
 50
124.2314770094
 51
55.7685229906
  0
LINE
  5
14F
330
2
100
AcDbEntity
  8
0
  6
Continuous
100
AcDbLine
 10
68.6752106674
 20
82.24607751529999
 30
0.0
 11
67.28774096409999
 21
81.4450213575
 31
0.0
  0
ARC
  5
150
330
2
100
AcDbEntity
  8
0
  6
Continuous
100
AcDbCircle
 10
70.7247999642
 20
85.738809582
 30
0.0
 40
5.499999100000034
100
AcDbArc
 50
188.6763100766
 51
231.3236899233999
  0
LINE
  5
151
330
2
100
AcDbEntity
  8
0
  6
Continuous
100
AcDbLine
 10
66.6752105724
 20
85.71017922720001
 30
0.0
 11
65.28774110189999
 21
84.90912317119997
 31
0.0
  0
ARC
  5
152
330
2
100
AcDbEntity
  8
0
  6
Continuous
100
AcDbCircle
 10
66.6252107353
 20
85.7967817677
 30
0.0
 40
0.0999999999999944
100
AcDbArc
 50
300.0
 51
359.1898358564
  0
ARC
  5
153
330
2
100
AcDbEntity
  8
0
  6
Continuous
100
AcDbCircle
 10
73.7247999642
 20
73.60414848239999
 30
0.0
 40
1.5
100
AcDbArc
 50
103.8865403626
 51
180.0
  0
ARC
  5
154
330
2
100
AcDbEntity
  8
0
  6
Continuous
100
AcDbCircle
 10
67.7247999642
 20
73.60414848239999
 30
0.0
 40
1.5
100
AcDbArc
 50
0.0
 51
76.11345963739998
  0
LINE
  5
155
330
2
100
AcDbEntity
  8
0
  6
Continuous
100
AcDbLine
 10
72.77438926100001
 20
82.24607751529999
 30
0.0
 11
74.1618589644
 21
81.4450213575
 31
0.0
  0
ARC
  5
156
330
2
100
AcDbEntity
  8
0
  6
Continuous
100
AcDbCircle
 10
70.7247999642
 20
85.738809582
 30
0.0
 40
2.775000000000062
100
AcDbArc
 50
108.9246444161
 51
71.07535558390002
  0
ARC
  5
157
330
2
100
AcDbEntity
  8
0
  6
Continuous
100
AcDbCircle
 10
70.7247999642
 20
85.738809582
 30
0.0
 40
3.999999100000138
100
AcDbArc
 50
240.8101641436
 51
299.1898358564
  0
ARC
  5
158
330
2
100
AcDbEntity
  8
0
  6
Continuous
100
AcDbCircle
 10
68.72521073529998
 20
82.1594750718
 30
0.0
 40
0.0999999999999849
100
AcDbArc
 50
60.8101641436
 51
119.9999999999999
  0
ARC
  5
159
330
2
100
AcDbEntity
  8
0
  6
Continuous
100
AcDbCircle
 10
72.72438919310001
 20
82.1594750718
 30
0.0
 40
0.099999999999992
100
AcDbArc
 50
60.0
 51
119.1898358563999
  0
LINE
  5
15A
330
2
100
AcDbEntity
  8
0
  6
Continuous
100
AcDbLine
 10
69.8247999797
 20
88.36380954659999
 30
0.0
 11
71.6247999488
 21
88.36380954659999
 31
0.0
  0
SPLINE
  5
15B
330
2
100
AcDbEntity
  8
0
  6
Continuous
100
AcDbSpline
210
0.0
220
0.0
230
1.0
 70
    24
 71
     3
 72
     8
 73
     4
 74
     0
 42
0.0000000001
 43
0.0000000001
 40
0.0
 40
0.0
 40
0.0
 40
0.0
 40
1.0
 40
1.0
 40
1.0
 40
1.0
 10
68.93874285429617
 20
88.36380958195032
 30
0.0
 10
69.2222819498422
 20
88.36380958195032
 30
0.0
 10
69.51466363604004
 20
88.36380958195032
 30
0.0
 10
69.82479996424515
 20
88.36380958195032
 30
0.0
  0
SPLINE
  5
15C
330
2
100
AcDbEntity
  8
0
  6
Continuous
100
AcDbSpline
210
0.0
220
0.0
230
1.0
 70
    24
 71
     3
 72
     8
 73
     4
 74
     0
 42
0.0000000001
 43
0.0000000001
 40
0.0
 40
0.0
 40
0.0
 40
0.0
 40
1.0
 40
1.0
 40
1.0
 40
1.0
 10
71.62479996424552
 20
88.36380958195032
 30
0.0
 10
71.93493629245063
 20
88.36380958195032
 30
0.0
 10
72.22731797864847
 20
88.36380958195032
 30
0.0
 10
72.5108570741945
 20
88.36380958195032
 30
0.0
  0
ARC
  5
15D
330
2
100
AcDbEntity
  8
0
  6
Continuous
100
AcDbCircle
 10
70.7247999642
 20
85.738809582
 30
0.0
 40
5.499999100000058
100
AcDbArc
 50
308.6763100765998
 51
351.3236899233999
  0
LINE
  5
15E
330
2
100
AcDbEntity
  8
0
  6
Continuous
100
AcDbLine
 10
74.774389356
 20
85.71017922720001
 30
0.0
 11
76.16185882649998
 21
84.90912317119997
 31
0.0
  0
ARC
  5
15F
330
2
100
AcDbEntity
  8
0
  6
Continuous
100
AcDbCircle
 10
74.8243891931
 20
85.7967817677
 30
0.0
 40
0.099999999999992
100
AcDbArc
 50
180.8101641436
 51
239.9999999999999
  0
ARC
  5
160
330
2
100
AcDbEntity
  8
0
  6
Continuous
100
AcDbCircle
 10
70.7247999642
 20
85.738809582
 30
0.0
 40
11.0
100
AcDbArc
 50
43.8865403626
 51
136.1134596373997
  0
ARC
  5
161
330
2
100
AcDbEntity
  8
0
  6
Continuous
100
AcDbCircle
 10
61.7158751858
 20
94.40421634309997
 30
0.0
 40
1.500000000000014
100
AcDbArc
 50
239.9999999999999
 51
316.1134596374
  0
LINE
  5
162
330
2
100
AcDbEntity
  8
0
  6
Continuous
100
AcDbLine
 10
59.4658755843
 20
90.50710200160001
 30
0.0
 11
57.689137492
 21
91.53290212909999
 31
0.0
  0
ARC
  5
163
330
2
100
AcDbEntity
  8
0
  6
Continuous
100
AcDbCircle
 10
58.7158751858
 20
89.20806392040001
 30
0.0
 40
1.5
100
AcDbArc
 50
343.8865403626
 51
60.0
  0
ARC
  5
164
330
2
100
AcDbEntity
  8
0
  6
Continuous
100
AcDbCircle
 10
59.9391375889
 20
95.43001627290001
 30
0.0
 40
1.500000000000004
100
AcDbArc
 50
138.0594560393999
 51
239.9999999999999
  0
LINE
  5
165
330
2
100
AcDbEntity
  8
0
  6
Continuous
100
AcDbLine
 10
60.9658748988
 20
93.105178129
 30
0.0
 11
59.18913773789999
 21
94.1309777909
 31
0.0
  0
ARC
  5
166
330
2
100
AcDbEntity
  8
0
  6
Continuous
100
AcDbCircle
 10
70.7247999642
 20
85.738809582
 30
0.0
 40
5.499999100000062
100
AcDbArc
 50
68.6763100766
 51
111.3236899234
  0
ARC
  5
167
330
2
100
AcDbEntity
  8
0
  6
Continuous
100
AcDbCircle
 10
68.62479996419999
 20
89.26017190639999
 30
0.0
 40
0.0999999999999922
100
AcDbArc
 50
300.8101641435998
 51
0.0
  0
LINE
  5
168
330
2
100
AcDbEntity
  8
0
  6
Continuous
100
AcDbLine
 10
68.7247998693
 20
89.2601719015
 30
0.0
 11
68.7247998693
 21
90.8622842171
 31
0.0
  0
LINE
  5
169
330
2
100
AcDbEntity
  8
0
  6
Continuous
100
AcDbLine
 10
72.72480005920002
 20
89.2601719015
 30
0.0
 11
72.72480005920002
 21
90.8622842171
 31
0.0
  0
ARC
  5
16A
330
2
100
AcDbEntity
  8
0
  6
Continuous
100
AcDbCircle
 10
72.8247999642
 20
89.26017190639999
 30
0.0
 40
0.0999999999999943
100
AcDbArc
 50
180.0
 51
239.1898358563999
  0
ARC
  5
16B
330
2
100
AcDbEntity
  8
0
  6
Continuous
100
AcDbCircle
 10
84.51046233959997
 20
90.23386385020002
 30
0.0
 40
1.500000000000004
100
AcDbArc
 50
18.0594560394
 51
119.9999999999999
  0
ARC
  5
16C
330
2
100
AcDbEntity
  8
0
  6
Continuous
100
AcDbCircle
 10
82.73372474270002
 20
89.20806392040001
 30
0.0
 40
1.499999999999998
100
AcDbArc
 50
119.9999999999999
 51
196.1134596374
  0
LINE
  5
16D
330
2
100
AcDbEntity
  8
0
  6
Continuous
100
AcDbLine
 10
81.98372434419999
 20
90.50710200160001
 30
0.0
 11
83.7604624365
 21
91.53290212909999
 31
0.0
  0
LINE
  5
16E
330
2
100
AcDbEntity
  8
0
  6
Continuous
100
AcDbLine
 10
80.48372502959997
 20
93.105178129
 30
0.0
 11
82.2604621906
 21
94.1309777909
 31
0.0
  0
ARC
  5
16F
330
2
100
AcDbEntity
  8
0
  6
Continuous
100
AcDbCircle
 10
81.5104623396
 20
95.43001627290001
 30
0.0
 40
1.499999999999995
100
AcDbArc
 50
300.0
 51
41.94054396059999
  0
CIRCLE
  5
170
330
2
100
AcDbEntity
  8
0
  6
Continuous
100
AcDbCircle
 10
94.29479996419999
 20
101.388809582
 30
0.0
 40
3.099999999999993
  0
ARC
  5
171
330
2
100
AcDbEntity
  8
0
  6
Continuous
100
AcDbCircle
 10
95.1447999642
 20
100.538809582
 30
0.0
 40
0.5999999999999944
100
AcDbArc
 50
90.0
 51
180.0
  0
ARC
  5
172
330
2
100
AcDbEntity
  8
0
  6
Continuous
100
AcDbCircle
 10
93.4447999642
 20
100.538809582
 30
0.0
 40
0.5999999999999944
100
AcDbArc
 50
0.0
 51
90.0
  0
LINE
  5
173
330
2
100
AcDbEntity
  8
0
  6
Continuous
100
AcDbLine
 10
94.54479973359999
 20
99.65675863260001
 30
0.0
 11
94.54479973359999
 21
100.5388095864
 31
0.0
  0
ARC
  5
174
330
2
100
AcDbEntity
  8
0
  6
Continuous
100
AcDbCircle
 10
94.29479996419999
 20
101.388809582
 30
0.0
 40
1.749999999999993
100
AcDbArc
 50
261.7867892982999
 51
278.2132107016999
  0
LINE
  5
175
330
2
100
AcDbEntity
  8
0
  6
Continuous
100
AcDbLine
 10
94.04480058290001
 20
99.65675863260001
 30
0.0
 11
94.04480058290001
 21
100.5388095864
 31
0.0
  0
LINE
  5
176
330
2
100
AcDbEntity
  8
0
  6
Continuous
100
AcDbLine
 10
93.44479973950001
 20
101.1388094985
 30
0.0
 11
92.56274971709999
 21
101.1388094985
 31
0.0
  0
LINE
  5
177
330
2
100
AcDbEntity
  8
0
  6
Continuous
100
AcDbLine
 10
93.44479973950001
 20
101.6388105118
 30
0.0
 11
92.56274971709999
 21
101.6388105118
 31
0.0
  0
ARC
  5
178
330
2
100
AcDbEntity
  8
0
  6
Continuous
100
AcDbCircle
 10
94.29479996419999
 20
101.388809582
 30
0.0
 40
1.749999999999995
100
AcDbArc
 50
171.7867892983
 51
188.2132107016999
  0
LINE
  5
179
330
2
100
AcDbEntity
  8
0
  6
Continuous
100
AcDbLine
 10
96.02685059950001
 20
101.1388094985
 30
0.0
 11
95.14480057700001
 21
101.1388094985
 31
0.0
  0
ARC
  5
17A
330
2
100
AcDbEntity
  8
0
  6
Continuous
100
AcDbCircle
 10
93.4447999642
 20
102.238809582
 30
0.0
 40
0.6000000000000087
100
AcDbArc
 50
270.0
 51
0.0
  0
LINE
  5
17B
330
2
100
AcDbEntity
  8
0
  6
Continuous
100
AcDbLine
 10
94.04480058290001
 20
102.2388094924999
 30
0.0
 11
94.04480058290001
 21
103.120859515
 31
0.0
  0
ARC
  5
17C
330
2
100
AcDbEntity
  8
0
  6
Continuous
100
AcDbCircle
 10
94.29479996419999
 20
101.388809582
 30
0.0
 40
1.750000000000006
100
AcDbArc
 50
81.78678929829997
 51
98.2132107017
  0
LINE
  5
17D
330
2
100
AcDbEntity
  8
0
  6
Continuous
100
AcDbLine
 10
94.54479973359999
 20
102.2388094924999
 30
0.0
 11
94.54479973359999
 21
103.120859515
 31
0.0
  0
ARC
  5
17E
330
2
100
AcDbEntity
  8
0
  6
Continuous
100
AcDbCircle
 10
95.1447999642
 20
102.238809582
 30
0.0
 40
0.6000000000000087
100
AcDbArc
 50
180.0
 51
270.0
  0
LINE
  5
17F
330
2
100
AcDbEntity
  8
0
  6
Continuous
100
AcDbLine
 10
96.02685059950001
 20
101.6388105118
 30
0.0
 11
95.14480057700001
 21
101.6388105118
 31
0.0
  0
ARC
  5
180
330
2
100
AcDbEntity
  8
0
  6
Continuous
100
AcDbCircle
 10
94.29479996419999
 20
101.388809582
 30
0.0
 40
1.750000000000011
100
AcDbArc
 50
351.7867892982998
 51
8.213210701699999
  0
DIMENSION
  5
181
330
2
100
AcDbEntity
  8
DIMS
100
AcDbDimension
  2
*D14
 10
132.3194849175999
 20
82.56380958200002
 30
0.0
 11
132.3194849175999
 21
80.24835808649999
 31
0.0
 70
   128
 71
     2
 42
-1.0
  3
SLDDIMSTYLE6
100
AcDbAlignedDimension
 13
136.4523791355999
 23
88.36380958200001
 33
0.0
 14
136.8523791355999
 24
82.56380958200002
 34
0.0
 50
90.0
100
AcDbRotatedDimension
  0
LINE
  5
18F
330
2
100
AcDbEntity
  8
0
  6
Continuous
100
AcDbLine
 10
136.4523787392
 20
82.96380963930001
 30
0.0
 11
136.4523787392
 21
88.36380954659999
 31
0.0
  0
LINE
  5
190
330
2
100
AcDbEntity
  8
0
  6
Continuous
100
AcDbLine
 10
136.8523799224
 20
88.36380954659999
 30
0.0
 11
136.8523799224
 21
82.56380962029998
 31
0.0
  0
LINE
  5
191
330
2
100
AcDbEntity
  8
0
  6
Continuous
100
AcDbLine
 10
136.4523787392
 20
82.96380963930001
 30
0.0
 11
136.8523799224
 21
82.56380962029998
 31
0.0
  0
SPLINE
  5
192
330
2
100
AcDbEntity
  8
0
  6
Continuous
100
AcDbSpline
210
0.0
220
0.0
230
1.0
 70
    24
 71
     3
 72
     8
 73
     4
 74
     0
 42
0.0000000001
 43
0.0000000001
 40
0.0
 40
0.0
 40
0.0
 40
0.0
 40
1.0
 40
1.0
 40
1.0
 40
1.0
 10
136.4523791356109
 20
88.3638095819503
 30
0.0
 10
136.5529638907044
 20
88.3638095819503
 30
0.0
 10
136.6928777127609
 20
88.3638095819503
 30
0.0
 10
136.8523791356107
 20
88.3638095819503
 30
0.0
  0
DIMENSION
  5
193
330
2
100
AcDbEntity
  8
DIMS
100
AcDbDimension
  2
*D8
 10
91.72479996419999
 20
138.5488929211
 30
0.0
 11
70.7247999642
 21
138.5488929211
 31
0.0
 70
   128
 71
     2
 42
-1.0
  3
SLDDIMSTYLE3
100
AcDbAlignedDimension
 13
49.7247999642
 23
115.738809582
 33
0.0
 14
91.72479996419999
 24
115.738809582
 34
0.0
100
AcDbRotatedDimension
  0
DIMENSION
  5
19D
330
2
100
AcDbEntity
  8
DIMS
100
AcDbDimension
  2
*D7
 10
84.62479996419999
 20
132.6952465608999
 30
0.0
 11
70.7247999642
 21
132.6952465608999
 31
0.0
 70
   128
 71
     2
 42
-1.0
  3
SLDDIMSTYLE3
100
AcDbAlignedDimension
 13
56.8247999642
 23
128.548809582
 33
0.0
 14
84.62479996419999
 24
128.548809582
 34
0.0
100
AcDbRotatedDimension
  0
DIMENSION
  5
1A7
330
2
100
AcDbEntity
  8
DIMS
100
AcDbDimension
  2
*D6
 10
92.70588044520001
 20
107.7157512772999
 30
0.0
 11
117.7538602501
 21
123.1860853752
 31
0.0
 70
   131
  1
4-<>
 71
     5
 42
-1.0
  3
SLDDIMSTYLE4
100
AcDbDiametricDimension
 15
95.8837194832
 25
110.9018678866
 35
0.0
 40
0.0
  0
MTEXT
  5
1B6
330
2
100
AcDbEntity
  8
0
  6
Continuous
100
AcDbMText
 10
42.5358842762
 20
175.5290179454
 30
0.0
 40
3.7041666667
 41
0.0
 71
     1
 72
     1
  1
単位　：　ｍｍ 
  7
SLDTEXTSTYLE0
 73
     1
 44
1.0
  0
MTEXT
  5
1B7
330
2
100
AcDbEntity
  8
0
  6
Continuous
100
AcDbMText
 10
42.5358842762
 20
180.4679067745999
 30
0.0
 40
3.7041666667
 41
0.0
 71
     1
 72
     1
  1
CM１-□-23L20C/S30C 外形寸法
  7
SLDTEXTSTYLE0
 73
     1
 44
1.0
  0
LINE
  5
1B8
330
2
100
AcDbEntity
  8
0
  6
Continuous
100
AcDbLine
 10
47.2248007689
 20
113.7388104462
 30
0.0
 11
94.2247991596
 21
113.7388104462
 31
0.0
  0
LINE
  5
1B9
330
2
100
AcDbEntity
  8
0
  6
Continuous
100
AcDbLine
 10
94.2247991596
 20
113.2388094329
 30
0.0
 11
47.2248007689
 21
113.2388094329
 31
0.0
  0
LINE
  5
1BA
330
2
100
AcDbEntity
  8
0
  6
Continuous
100
AcDbLine
 10
56.8248002936
 20
119.7388114296998
 30
0.0
 11
53.7247990404
 21
119.7388114296998
 31
0.0
  0
LINE
  5
1BB
330
2
100
AcDbEntity
  8
0
  6
Continuous
100
AcDbLine
 10
54.4247997139
 20
113.9388101064999
 30
0.0
 11
56.8248002936
 21
113.9388101064999
 31
0.0
  0
LINE
  5
1BC
330
2
100
AcDbEntity
  8
0
  6
Continuous
100
AcDbLine
 10
56.8248002936
 20
119.1388087236
 30
0.0
 11
54.4247997139
 21
119.1388087236
 31
0.0
  0
CIRCLE
  5
1BD
330
2
100
AcDbEntity
  8
0
  6
Continuous
100
AcDbCircle
 10
54.2247999642
 20
116.538809582
 30
0.0
 40
2.5
  0
ARC
  5
1BE
330
2
100
AcDbEntity
  8
0
  6
Continuous
100
AcDbCircle
 10
54.2247999642
 20
116.538809582
 30
0.0
 40
2.449999999999989
100
AcDbArc
 50
97.03346131540001
 51
90.0
  0
ARC
  5
1BF
330
2
100
AcDbEntity
  8
0
  6
Continuous
100
AcDbCircle
 10
55.4747999626
 20
116.5387450651
 30
0.0
 40
0.2500645168003928
100
AcDbArc
 50
271.8406943506999
 51
90.0
  0
CIRCLE
  5
1C0
330
2
100
AcDbEntity
  8
0
  6
Continuous
100
AcDbCircle
 10
54.2247999642
 20
116.538809582
 30
0.0
 40
2.25
  0
CIRCLE
  5
1C1
330
2
100
AcDbEntity
  8
0
  6
Continuous
100
AcDbCircle
 10
54.2247999642
 20
116.538809582
 30
0.0
 40
1.75
  0
ARC
  5
1C2
330
2
100
AcDbEntity
  8
0
  6
Continuous
100
AcDbCircle
 10
47.2247999642
 20
109.238809582
 30
0.0
 40
4.500000000000028
100
AcDbArc
 50
90.0
 51
180.0
  0
ARC
  5
1C3
330
2
100
AcDbEntity
  8
0
  6
Continuous
100
AcDbCircle
 10
47.2247999642
 20
109.238809582
 30
0.0
 40
4.0
100
AcDbArc
 50
90.0
 51
180.0
  0
CIRCLE
  5
1C4
330
2
100
AcDbEntity
  8
0
  6
Continuous
100
AcDbCircle
 10
47.1547999642
 20
109.308809582
 30
0.0
 40
2.25
  0
LINE
  5
1C5
330
2
100
AcDbEntity
  8
0
  6
Continuous
100
AcDbLine
 10
53.7247990404
 20
119.7388114296998
 30
0.0
 11
49.7248002474
 21
115.7388089114
 31
0.0
  0
LINE
  5
1C6
330
2
100
AcDbEntity
  8
0
  6
Continuous
100
AcDbLine
 10
49.7248002474
 20
115.7388089114
 30
0.0
 11
49.7248002474
 21
113.7388104462
 31
0.0
  0
LINE
  5
1C7
330
2
100
AcDbEntity
  8
0
  6
Continuous
100
AcDbLine
 10
54.47480056029998
 20
117.1888092421997
 30
0.0
 11
54.47480056029998
 21
117.7888082229997
 31
0.0
  0
LINE
  5
1C8
330
2
100
AcDbEntity
  8
0
  6
Continuous
100
AcDbLine
 10
53.97479954699999
 20
117.7888082229997
 30
0.0
 11
53.97479954699999
 21
117.1888092421997
 31
0.0
  0
ARC
  5
1C9
330
2
100
AcDbEntity
  8
0
  6
Continuous
100
AcDbCircle
 10
52.9747999642
 20
116.538809582
 30
0.0
 40
0.25
100
AcDbArc
 50
90.0
 51
270.0
  0
ARC
  5
1CA
330
2
100
AcDbEntity
  8
0
  6
Continuous
100
AcDbCircle
 10
54.4247999642
 20
116.538809582
 30
0.0
 40
2.60000000000004
100
AcDbArc
 50
238.0724728416
 51
269.9999927809999
  0
ARC
  5
1CB
330
2
100
AcDbEntity
  8
0
  6
Continuous
100
AcDbCircle
 10
53.5747999642
 20
115.888809582
 30
0.0
 40
0.4000000000000057
100
AcDbArc
 50
0.0
 51
90.0
  0
LINE
  5
1CC
330
2
100
AcDbEntity
  8
0
  6
Continuous
100
AcDbLine
 10
52.97479938310001
 20
116.2888089084
 30
0.0
 11
53.57480022649999
 21
116.2888089084
 31
0.0
  0
LINE
  5
1CD
330
2
100
AcDbEntity
  8
0
  6
Continuous
100
AcDbLine
 10
53.57480022649999
 20
116.7888099217
 30
0.0
 11
52.97479938310001
 21
116.7888099217
 31
0.0
  0
ARC
  5
1CE
330
2
100
AcDbEntity
  8
0
  6
Continuous
100
AcDbCircle
 10
53.5747999642
 20
117.1888095819999
 30
0.0
 40
0.4000000000000199
100
AcDbArc
 50
270.0
 51
0.0
  0
LINE
  5
1CF
330
2
100
AcDbEntity
  8
0
  6
Continuous
100
AcDbLine
 10
53.97479954699999
 20
115.8888095879
 30
0.0
 11
53.97479954699999
 21
115.2888087445
 31
0.0
  0
ARC
  5
1D0
330
2
100
AcDbEntity
  8
0
  6
Continuous
100
AcDbCircle
 10
54.8747999642
 20
117.1888095819999
 30
0.0
 40
0.4000000000000199
100
AcDbArc
 50
180.0
 51
270.0
  0
LINE
  5
1D1
330
2
100
AcDbEntity
  8
0
  6
Continuous
100
AcDbLine
 10
55.4747997929
 20
116.7888099217
 30
0.0
 11
54.8747998808
 21
116.7888099217
 31
0.0
  0
LINE
  5
1D2
330
2
100
AcDbEntity
  8
0
  6
Continuous
100
AcDbLine
 10
54.8747998808
 20
116.2888089084
 30
0.0
 11
55.48283245010001
 21
116.2888089084
 31
0.0
  0
ARC
  5
1D3
330
2
100
AcDbEntity
  8
0
  6
Continuous
100
AcDbCircle
 10
54.8747999642
 20
115.888809582
 30
0.0
 40
0.4000000000000057
100
AcDbArc
 50
90.0
 51
180.0
  0
LINE
  5
1D4
330
2
100
AcDbEntity
  8
0
  6
Continuous
100
AcDbLine
 10
54.47480056029998
 20
115.2888087445
 30
0.0
 11
54.47480056029998
 21
115.8888095879
 31
0.0
  0
ARC
  5
1D5
330
2
100
AcDbEntity
  8
0
  6
Continuous
100
AcDbCircle
 10
54.2247999642
 20
115.288809582
 30
0.0
 40
0.25
100
AcDbArc
 50
180.0
 51
0.0
  0
ARC
  5
1D6
330
2
100
AcDbEntity
  8
0
  6
Continuous
100
AcDbCircle
 10
54.4247999642
 20
116.538809582
 30
0.0
 40
2.600000000000015
100
AcDbArc
 50
90.00000721899999
 51
121.9275271459
  0
LINE
  5
1D7
330
2
100
AcDbEntity
  8
0
  6
Continuous
100
AcDbLine
 10
54.2248000537
 20
118.9888099098
 30
0.0
 11
54.2248000537
 21
118.7988089287
 31
0.0
  0
ARC
  5
1D8
330
2
100
AcDbEntity
  8
0
  6
Continuous
100
AcDbCircle
 10
54.2247999642
 20
116.538809582
 30
0.0
 40
2.259999999999981
100
AcDbArc
 50
90.0
 51
97.6281496686
  0
LINE
  5
1D9
330
2
100
AcDbEntity
  8
0
  6
Continuous
100
AcDbLine
 10
53.9248005633
 20
118.9703734480999
 30
0.0
 11
53.9248005633
 21
118.7788078450999
 31
0.0
  0
ARC
  5
1DA
330
2
100
AcDbEntity
  8
0
  6
Continuous
100
AcDbCircle
 10
54.2247999642
 20
117.788809582
 30
0.0
 40
0.25
100
AcDbArc
 50
0.0
 51
180.0
  0
LINE
  5
1DB
330
2
100
AcDbEntity
  8
0
  6
Continuous
100
AcDbLine
 10
136.4523787392
 20
169.7537134255
 30
0.0
 11
136.4523787392
 21
171.6287133835999
 31
0.0
  0
LINE
  5
1DC
330
2
100
AcDbEntity
  8
0
  6
Continuous
100
AcDbLine
 10
136.8523799224
 20
170.7426562293
 30
0.0
 11
136.8523799224
 21
169.3537134065
 31
0.0
  0
LINE
  5
1DD
330
2
100
AcDbEntity
  8
0
  6
Continuous
100
AcDbLine
 10
57.4347998161
 20
128.5488100612
 30
0.0
 11
84.0148001124
 21
128.5488100612
 31
0.0
  0
LINE
  5
1DE
330
2
100
AcDbEntity
  8
0
  6
Continuous
100
AcDbLine
 10
84.0247997228
 20
113.9388101064999
 30
0.0
 11
57.42480020560001
 21
113.9388101064999
 31
0.0
  0
LINE
  5
1DF
330
2
100
AcDbEntity
  8
0
  6
Continuous
100
AcDbLine
 10
56.8248002936
 20
113.9388101064999
 30
0.0
 11
56.8248002936
 21
127.938808676
 31
0.0
  0
LINE
  5
1E0
330
2
100
AcDbEntity
  8
0
  6
Continuous
100
AcDbLine
 10
57.724799696
 20
113.7388104462
 30
0.0
 11
57.724799696
 21
113.9388101064999
 31
0.0
  0
LINE
  5
1E1
330
2
100
AcDbEntity
  8
0
  6
Continuous
100
AcDbLine
 10
57.42480020560001
 20
113.9388101064999
 30
0.0
 11
56.8248002936
 21
113.9388101064999
 31
0.0
  0
LINE
  5
1E2
330
2
100
AcDbEntity
  8
0
  6
Continuous
100
AcDbLine
 10
56.8248002936
 20
127.938808676
 30
0.0
 11
56.8248002936
 21
127.9488110804
 31
0.0
  0
LINE
  5
1E3
330
2
100
AcDbEntity
  8
0
  6
Continuous
100
AcDbLine
 10
56.8248002936
 20
127.9488110804
 30
0.0
 11
57.4347998161
 21
127.9488110804
 31
0.0
  0
LINE
  5
1E4
330
2
100
AcDbEntity
  8
0
  6
Continuous
100
AcDbLine
 10
56.8248002936
 20
128.5488100612
 30
0.0
 11
57.4347998161
 21
128.5488100612
 31
0.0
  0
LINE
  5
1E5
330
2
100
AcDbEntity
  8
0
  6
Continuous
100
AcDbLine
 10
56.8248002936
 20
128.5488100612
 30
0.0
 11
56.8248002936
 21
127.9488110804
 31
0.0
  0
LINE
  5
1E6
330
2
100
AcDbEntity
  8
0
  6
Continuous
100
AcDbLine
 10
57.4347998161
 20
127.9488110804
 30
0.0
 11
57.4347998161
 21
128.5488100612
 31
0.0
  0
LINE
  5
1E7
330
2
100
AcDbEntity
  8
0
  6
Continuous
100
AcDbLine
 10
84.6247996349
 20
113.9388101064999
 30
0.0
 11
84.6247996349
 21
127.938808676
 31
0.0
  0
LINE
  5
1E8
330
2
100
AcDbEntity
  8
0
  6
Continuous
100
AcDbLine
 10
91.72479968110001
 20
115.7388089114
 30
0.0
 11
87.72480088809997
 21
119.7388114296998
 31
0.0
  0
LINE
  5
1E9
330
2
100
AcDbEntity
  8
0
  6
Continuous
100
AcDbLine
 10
87.72480088809997
 20
119.7388114296998
 30
0.0
 11
84.6247996349
 21
119.7388114296998
 31
0.0
  0
LINE
  5
1EA
330
2
100
AcDbEntity
  8
0
  6
Continuous
100
AcDbLine
 10
84.6247996349
 20
119.1388087236
 30
0.0
 11
87.02480021459999
 21
119.1388087236
 31
0.0
  0
LINE
  5
1EB
330
2
100
AcDbEntity
  8
0
  6
Continuous
100
AcDbLine
 10
87.02480021459999
 20
113.9388101064999
 30
0.0
 11
84.6247996349
 21
113.9388101064999
 31
0.0
  0
LINE
  5
1EC
330
2
100
AcDbEntity
  8
0
  6
Continuous
100
AcDbLine
 10
83.7248002325
 20
113.9388101064999
 30
0.0
 11
83.7248002325
 21
113.7388104462
 31
0.0
  0
LINE
  5
1ED
330
2
100
AcDbEntity
  8
0
  6
Continuous
100
AcDbLine
 10
84.6247996349
 20
113.9388101064999
 30
0.0
 11
84.0247997228
 21
113.9388101064999
 31
0.0
  0
CIRCLE
  5
1EE
330
2
100
AcDbEntity
  8
0
  6
Continuous
100
AcDbCircle
 10
87.2247999642
 20
116.538809582
 30
0.0
 40
2.5
  0
ARC
  5
1EF
330
2
100
AcDbEntity
  8
0
  6
Continuous
100
AcDbCircle
 10
87.2247999642
 20
116.538809582
 30
0.0
 40
2.449999999999977
100
AcDbArc
 50
97.03346131540001
 51
90.0
  0
LINE
  5
1F0
330
2
100
AcDbEntity
  8
0
  6
Continuous
100
AcDbLine
 10
87.47480038149998
 20
117.1888092421997
 30
0.0
 11
87.47480038149998
 21
117.7888082229997
 31
0.0
  0
LINE
  5
1F1
330
2
100
AcDbEntity
  8
0
  6
Continuous
100
AcDbLine
 10
86.9747993682
 20
117.7888082229997
 30
0.0
 11
86.9747993682
 21
117.1888092421997
 31
0.0
  0
CIRCLE
  5
1F2
330
2
100
AcDbEntity
  8
0
  6
Continuous
100
AcDbCircle
 10
87.2247999642
 20
116.538809582
 30
0.0
 40
2.25
  0
CIRCLE
  5
1F3
330
2
100
AcDbEntity
  8
0
  6
Continuous
100
AcDbCircle
 10
87.2247999642
 20
116.538809582
 30
0.0
 40
1.75
  0
ARC
  5
1F4
330
2
100
AcDbEntity
  8
0
  6
Continuous
100
AcDbCircle
 10
87.02479996420001
 20
116.538809582
 30
0.0
 40
2.600000000000029
100
AcDbArc
 50
270.0000072189999
 51
301.9275271656998
  0
ARC
  5
1F5
330
2
100
AcDbEntity
  8
0
  6
Continuous
100
AcDbCircle
 10
87.8747999642
 20
115.888809582
 30
0.0
 40
0.4000000000000199
100
AcDbArc
 50
90.0
 51
180.0
  0
ARC
  5
1F6
330
2
100
AcDbEntity
  8
0
  6
Continuous
100
AcDbCircle
 10
87.8747999642
 20
117.1888095819999
 30
0.0
 40
0.4000000000000199
100
AcDbArc
 50
180.0
 51
270.0
  0
LINE
  5
1F7
330
2
100
AcDbEntity
  8
0
  6
Continuous
100
AcDbLine
 10
86.9747993682
 20
115.8888095879
 30
0.0
 11
86.9747993682
 21
115.2888087445
 31
0.0
  0
LINE
  5
1F8
330
2
100
AcDbEntity
  8
0
  6
Continuous
100
AcDbLine
 10
85.9748001356
 20
116.2888089084
 30
0.0
 11
86.5748000477
 21
116.2888089084
 31
0.0
  0
LINE
  5
1F9
330
2
100
AcDbEntity
  8
0
  6
Continuous
100
AcDbLine
 10
86.5748000477
 20
116.7888099217
 30
0.0
 11
85.9748001356
 21
116.7888099217
 31
0.0
  0
ARC
  5
1FA
330
2
100
AcDbEntity
  8
0
  6
Continuous
100
AcDbCircle
 10
86.57479996419999
 20
115.888809582
 30
0.0
 40
0.4000000000000057
100
AcDbArc
 50
0.0
 51
90.0
  0
ARC
  5
1FB
330
2
100
AcDbEntity
  8
0
  6
Continuous
100
AcDbCircle
 10
87.2247999642
 20
115.288809582
 30
0.0
 40
0.25
100
AcDbArc
 50
180.0
 51
0.0
  0
LINE
  5
1FC
330
2
100
AcDbEntity
  8
0
  6
Continuous
100
AcDbLine
 10
87.47480038149998
 20
115.2888087445
 30
0.0
 11
87.47480038149998
 21
115.8888095879
 31
0.0
  0
ARC
  5
1FD
330
2
100
AcDbEntity
  8
0
  6
Continuous
100
AcDbCircle
 10
86.57479996419999
 20
117.1888095819999
 30
0.0
 40
0.4000000000000199
100
AcDbArc
 50
270.0
 51
0.0
  0
ARC
  5
1FE
330
2
100
AcDbEntity
  8
0
  6
Continuous
100
AcDbCircle
 10
85.9747999642
 20
116.538809582
 30
0.0
 40
0.25
100
AcDbArc
 50
90.0
 51
270.0
  0
LINE
  5
1FF
330
2
100
AcDbEntity
  8
0
  6
Continuous
100
AcDbLine
 10
88.47480054540001
 20
116.7888099217
 30
0.0
 11
87.87479970200001
 21
116.7888099217
 31
0.0
  0
ARC
  5
200
330
2
100
AcDbEntity
  8
0
  6
Continuous
100
AcDbCircle
 10
88.4747999626
 20
116.5387450651
 30
0.0
 40
0.2500645168003928
100
AcDbArc
 50
271.8406943506999
 51
90.0
  0
LINE
  5
201
330
2
100
AcDbEntity
  8
0
  6
Continuous
100
AcDbLine
 10
87.87479970200001
 20
116.2888089084
 30
0.0
 11
88.4828322713
 21
116.2888089084
 31
0.0
  0
ARC
  5
202
330
2
100
AcDbEntity
  8
0
  6
Continuous
100
AcDbCircle
 10
87.02479996420001
 20
116.538809582
 30
0.0
 40
2.60000000000002
100
AcDbArc
 50
58.0724728443
 51
89.999992781
  0
LINE
  5
203
330
2
100
AcDbEntity
  8
0
  6
Continuous
100
AcDbLine
 10
87.22479987479998
 20
118.9888099098
 30
0.0
 11
87.22479987479998
 21
118.7988089287
 31
0.0
  0
ARC
  5
204
330
2
100
AcDbEntity
  8
0
  6
Continuous
100
AcDbCircle
 10
87.2247999642
 20
116.538809582
 30
0.0
 40
2.259999999999994
100
AcDbArc
 50
90.0
 51
97.6281496686
  0
LINE
  5
205
330
2
100
AcDbEntity
  8
0
  6
Continuous
100
AcDbLine
 10
86.9248003845
 20
118.9703734480999
 30
0.0
 11
86.9248003845
 21
118.7788078450999
 31
0.0
  0
ARC
  5
206
330
2
100
AcDbEntity
  8
0
  6
Continuous
100
AcDbCircle
 10
87.2247999642
 20
117.788809582
 30
0.0
 40
0.25
100
AcDbArc
 50
0.0
 51
180.0
  0
ARC
  5
207
330
2
100
AcDbEntity
  8
0
  6
Continuous
100
AcDbCircle
 10
94.22479996419999
 20
109.238809582
 30
0.0
 40
4.500000000000011
100
AcDbArc
 50
0.0
 51
90.0
  0
ARC
  5
208
330
2
100
AcDbEntity
  8
0
  6
Continuous
100
AcDbCircle
 10
94.22479996419999
 20
109.238809582
 30
0.0
 40
4.0
100
AcDbArc
 50
0.0
 51
90.0
  0
CIRCLE
  5
209
330
2
100
AcDbEntity
  8
0
  6
Continuous
100
AcDbCircle
 10
94.29479996419999
 20
109.308809582
 30
0.0
 40
2.25
  0
LINE
  5
20A
330
2
100
AcDbEntity
  8
0
  6
Continuous
100
AcDbLine
 10
91.72479968110001
 20
113.7388104462
 30
0.0
 11
91.72479968110001
 21
115.7388089114
 31
0.0
  0
LINE
  5
20B
330
2
100
AcDbEntity
  8
0
  6
Continuous
100
AcDbLine
 10
84.6247996349
 20
127.938808676
 30
0.0
 11
84.6247996349
 21
127.9488110804
 31
0.0
  0
LINE
  5
20C
330
2
100
AcDbEntity
  8
0
  6
Continuous
100
AcDbLine
 10
84.0148001124
 20
127.9488110804
 30
0.0
 11
84.6247996349
 21
127.9488110804
 31
0.0
  0
LINE
  5
20D
330
2
100
AcDbEntity
  8
0
  6
Continuous
100
AcDbLine
 10
84.0148001124
 20
128.5488100612
 30
0.0
 11
84.6247996349
 21
128.5488100612
 31
0.0
  0
LINE
  5
20E
330
2
100
AcDbEntity
  8
0
  6
Continuous
100
AcDbLine
 10
84.6247996349
 20
128.5488100612
 30
0.0
 11
84.6247996349
 21
127.9488110804
 31
0.0
  0
LINE
  5
20F
330
2
100
AcDbEntity
  8
0
  6
Continuous
100
AcDbLine
 10
84.0148001124
 20
127.9488110804
 30
0.0
 11
84.0148001124
 21
128.5488100612
 31
0.0
  0
MTEXT
  5
210
330
2
100
AcDbEntity
  8
DIMS
100
AcDbMText
 10
106.0259560512097
 20
118.6540143077482
 30
0.0
 40
3.5
 41
0.0
 71
     1
 72
     1
  1
THRU HOLE
  7
SLDTEXTSTYLE0
 73
     1
 44
1.0
  0
MTEXT
  5
211
330
2
100
AcDbEntity
  8
DIMS
100
AcDbMText
 10
119.1525011765999
 20
162.0577727367
 30
0.0
 40
3.5
 41
0.0
 71
     1
 72
     1
  1
D-cut R4 Min
  7
SLDTEXTSTYLE0
 73
     1
 44
1.0
  0
LINE
  5
212
330
2
100
AcDbEntity
  8
0
  6
Continuous
100
AcDbLine
 10
136.4523787392
 20
169.7537134255
 30
0.0
 11
136.8523799224
 21
169.3537134065
 31
0.0
  0
LINE
  5
213
330
2
100
AcDbEntity
  8
0
  6
Continuous
100
AcDbLine
 10
136.4523787392
 20
173.4287133527
 30
0.0
 11
136.4523787392
 21
175.3037133108
 31
0.0
  0
LINE
  5
214
330
2
100
AcDbEntity
  8
0
  6
Continuous
100
AcDbLine
 10
136.8523799224
 20
175.7037133297997
 30
0.0
 11
136.8523799224
 21
174.3147705068999
 31
0.0
  0
LINE
  5
215
330
2
100
AcDbEntity
  8
0
  6
Continuous
100
AcDbLine
 10
136.4523787392
 20
173.4287133527
 30
0.0
 11
136.4523787392
 21
171.6287133835999
 31
0.0
  0
SPLINE
  5
216
330
2
100
AcDbEntity
  8
0
  6
Continuous
100
AcDbSpline
210
0.0
220
0.0
230
1.0
 70
     8
 71
     3
 72
     8
 73
     4
 74
     0
 42
0.0000000001
 43
0.0000000001
 40
0.0
 40
0.0
 40
0.0
 40
0.0
 40
1.0
 40
1.0
 40
1.0
 40
1.0
 10
136.4523791356109
 20
171.6287133681329
 30
0.0
 10
136.5529638907044
 20
171.3185770399278
 30
0.0
 10
136.6928777127609
 20
171.0261953537303
 30
0.0
 10
136.8523791356109
 20
170.7426562581841
 30
0.0
  0
SPLINE
  5
217
330
2
100
AcDbEntity
  8
0
  6
Continuous
100
AcDbSpline
210
0.0
220
0.0
230
1.0
 70
     8
 71
     3
 72
     8
 73
     4
 74
     0
 42
0.0000000001
 43
0.0000000001
 40
0.0
 40
0.0
 40
0.0
 40
0.0
 40
1.0
 40
1.0
 40
1.0
 40
1.0
 10
136.8523791356109
 20
174.3147704780825
 30
0.0
 10
136.6928777127609
 20
174.0312313825365
 30
0.0
 10
136.5529638907044
 20
173.7388496963387
 30
0.0
 10
136.4523791356109
 20
173.4287133681335
 30
0.0
  0
LINE
  5
218
330
2
100
AcDbEntity
  8
0
  6
Continuous
100
AcDbLine
 10
136.8523799224
 20
175.7037133297997
 30
0.0
 11
136.4523787392
 21
175.3037133108
 31
0.0
  0
DIMENSION
  5
219
330
2
100
AcDbEntity
  8
DIMS
100
AcDbDimension
  2
*D26
 10
270.6926953086999
 20
85.738809582
 30
0.0
 11
270.6926953086999
 21
107.143809582
 31
0.0
 70
   128
  1
(<>)
 71
     2
 42
-1.0
  3
SLDDIMSTYLE3
100
AcDbAlignedDimension
 13
234.2623791356
 23
128.548809582
 33
0.0
 14
258.3558749666999
 24
85.738809582
 34
0.0
 50
90.0
100
AcDbRotatedDimension
  0
DIMENSION
  5
225
330
2
100
AcDbEntity
  8
DIMS
100
AcDbDimension
  2
*D24
 10
263.4512764387998
 20
119.7388250687
 30
0.0
 11
263.4512764387998
 21
102.7388173253
 31
0.0
 70
   128
 71
     2
 42
-1.0
  3
SLDDIMSTYLE3
100
AcDbAlignedDimension
 13
258.3558749666999
 23
85.738809582
 33
0.0
 14
256.8523791356
 24
119.7388250687
 34
0.0
 50
90.0
100
AcDbRotatedDimension
  0
LINE
  5
22F
330
2
100
AcDbEntity
  8
0
  6
Continuous
100
AcDbLine
 10
232.8523807568999
 20
105.2348090224999
 30
0.0
 11
232.8523807568999
 21
102.2411601506999
 31
0.0
  0
LINE
  5
230
330
2
100
AcDbEntity
  8
0
  6
Continuous
100
AcDbLine
 10
221.9023816627998
 20
105.2348090224999
 30
0.0
 11
221.9023816627998
 21
102.2411601506999
 31
0.0
  0
LINE
  5
231
330
2
100
AcDbEntity
  8
0
  6
Continuous
100
AcDbLine
 10
221.9023816627998
 20
105.2348090224999
 30
0.0
 11
221.9023816627998
 21
102.6582846306999
 31
0.0
  0
LINE
  5
232
330
2
100
AcDbEntity
  8
0
  6
Continuous
100
AcDbLine
 10
167.502379079
 20
105.2348090224999
 30
0.0
 11
167.502379079
 21
102.6582846306999
 31
0.0
  0
LINE
  5
233
330
2
100
AcDbEntity
  8
0
  6
Continuous
100
AcDbLine
 10
167.502379079
 20
105.2348090224999
 30
0.0
 11
167.502379079
 21
102.2411601506999
 31
0.0
  0
LINE
  5
234
330
2
100
AcDbEntity
  8
0
  6
Continuous
100
AcDbLine
 10
157.0523791356
 20
62.2388103866
 30
0.0
 11
157.0523791356
 21
109.2388087772999
 31
0.0
  0
LINE
  5
235
330
2
100
AcDbEntity
  8
0
  6
Continuous
100
AcDbLine
 10
157.5523791594
 20
109.2388087772999
 30
0.0
 11
157.5523791594
 21
62.2388103866
 31
0.0
  0
LINE
  5
236
330
2
100
AcDbEntity
  8
0
  6
Continuous
100
AcDbLine
 10
162.0523790238999
 20
109.2388087772999
 30
0.0
 11
162.0523790238999
 21
102.23608258
 31
0.0
  0
LINE
  5
237
330
2
100
AcDbEntity
  8
0
  6
Continuous
100
AcDbLine
 10
250.0523813409999
 20
115.7388089114
 30
0.0
 11
250.0523813409999
 21
70.7388099172
 31
0.0
  0
LINE
  5
238
330
2
100
AcDbEntity
  8
0
  6
Continuous
100
AcDbLine
 10
256.8523772402
 20
70.73882481840001
 30
0.0
 11
256.8523772402
 21
115.7388256751999
 31
0.0
  0
LINE
  5
239
330
2
100
AcDbEntity
  8
0
  6
Continuous
100
AcDbLine
 10
250.5523823543
 20
70.73882481840001
 30
0.0
 11
250.5523823543
 21
115.7388256751999
 31
0.0
  0
DIMENSION
  5
23A
330
2
100
AcDbEntity
  8
DIMS
100
AcDbDimension
  2
*D27
 10
256.8523791356
 20
43.7713146418
 30
0.0
 11
206.9523791356
 21
43.7713146418
 31
0.0
 70
   128
 71
     2
 42
-1.0
  3
SLDDIMSTYLE13
100
AcDbAlignedDimension
 13
157.0523791356
 23
58.238809582
 33
0.0
 14
256.8523791356
 24
66.7388250687
 34
0.0
100
AcDbRotatedDimension
  0
DIMENSION
  5
246
330
2
100
AcDbEntity
  8
DIMS
100
AcDbDimension
  2
*D23
 10
256.8523791356
 20
50.9052983355
 30
0.0
 11
244.8523791356
 21
50.9052983355
 31
0.0
 70
   128
 71
     2
 42
-1.0
  3
SLDDIMSTYLE3
100
AcDbAlignedDimension
 13
232.8523791356
 23
57.7401946235
 33
0.0
 14
256.8523791356
 24
66.7388250687
 34
0.0
100
AcDbRotatedDimension
  0
LINE
  5
250
330
2
100
AcDbEntity
  8
0
  6
Continuous
100
AcDbLine
 10
232.8523807568999
 20
66.7388101929
 30
0.0
 11
250.0523813409999
 21
66.7388101929
 31
0.0
  0
LINE
  5
251
330
2
100
AcDbEntity
  8
0
  6
Continuous
100
AcDbLine
 10
232.8523807568999
 20
70.7388099172
 30
0.0
 11
250.0523813409999
 21
70.7388099172
 31
0.0
  0
DIMENSION
  5
252
330
2
100
AcDbEntity
  8
DIMS
100
AcDbDimension
  2
*D22
 10
232.8523791356
 20
50.9052983355
 30
0.0
 11
194.9523791356
 21
50.9052983355
 31
0.0
 70
   128
 71
     2
 42
-1.0
  3
SLDDIMSTYLE12
100
AcDbAlignedDimension
 13
157.0523791356
 23
58.238809582
 33
0.0
 14
232.8523791356
 24
57.7401946235
 34
0.0
100
AcDbRotatedDimension
  0
LINE
  5
25D
330
2
100
AcDbEntity
  8
0
  6
Continuous
100
AcDbLine
 10
221.9023816627998
 20
57.98880922430001
 30
0.0
 11
167.502379079
 21
57.98880922430001
 31
0.0
  0
LINE
  5
25E
330
2
100
AcDbEntity
  8
0
  6
Continuous
100
AcDbLine
 10
221.9023816627998
 20
59.7358083242
 30
0.0
 11
167.502379079
 21
59.7358083242
 31
0.0
  0
LINE
  5
25F
330
2
100
AcDbEntity
  8
0
  6
Continuous
100
AcDbLine
 10
221.9023816627998
 20
66.2428101414
 30
0.0
 11
167.502379079
 21
66.2428101414
 31
0.0
  0
LINE
  5
260
330
2
100
AcDbEntity
  8
0
  6
Continuous
100
AcDbLine
 10
221.9023816627998
 20
68.8245406264
 30
0.0
 11
167.502379079
 21
68.8245406264
 31
0.0
  0
LINE
  5
261
330
2
100
AcDbEntity
  8
0
  6
Continuous
100
AcDbLine
 10
221.9023816627998
 20
102.6530785374999
 30
0.0
 11
167.502379079
 21
102.6530785374999
 31
0.0
  0
LINE
  5
262
330
2
100
AcDbEntity
  8
0
  6
Continuous
100
AcDbLine
 10
155.8523790785999
 20
85.738809582
 30
0.0
 11
155.8523790785999
 21
66.68880934649999
 31
0.0
  0
LINE
  5
263
330
2
100
AcDbEntity
  8
0
  6
Continuous
100
AcDbLine
 10
155.5523791226
 20
66.98880883689999
 30
0.0
 11
155.5523791226
 21
85.738809582
 31
0.0
  0
LINE
  5
264
330
2
100
AcDbEntity
  8
0
  6
Continuous
100
AcDbLine
 10
167.502379079
 20
102.23608258
 30
0.0
 11
167.502379079
 21
69.2415365839
 31
0.0
  0
LINE
  5
265
330
2
100
AcDbEntity
  8
0
  6
Continuous
100
AcDbLine
 10
162.0523790238999
 20
57.7388087177
 30
0.0
 11
157.5523791594
 21
57.7388087177
 31
0.0
  0
LINE
  5
266
330
2
100
AcDbEntity
  8
0
  6
Continuous
100
AcDbLine
 10
157.0523791356
 20
58.238809731
 30
0.0
 11
157.0523791356
 21
62.2388103866
 31
0.0
  0
LINE
  5
267
330
2
100
AcDbEntity
  8
0
  6
Continuous
100
AcDbLine
 10
157.5523791594
 20
62.2388103866
 30
0.0
 11
157.5523791594
 21
57.7388087177
 31
0.0
  0
LINE
  5
268
330
2
100
AcDbEntity
  8
0
  6
Continuous
100
AcDbLine
 10
157.0523791356
 20
58.238809731
 30
0.0
 11
157.5523791594
 21
57.7388087177
 31
0.0
  0
ARC
  5
269
330
2
100
AcDbEntity
  8
0
  6
Continuous
100
AcDbCircle
 10
155.8523791355999
 20
66.988809582
 30
0.0
 40
0.3000000000000114
100
AcDbArc
 50
180.0
 51
270.0
  0
LINE
  5
26A
330
2
100
AcDbEntity
  8
0
  6
Continuous
100
AcDbLine
 10
155.8523790785999
 20
66.68880934649999
 30
0.0
 11
157.0523791356
 21
66.68880934649999
 31
0.0
  0
LINE
  5
26B
330
2
100
AcDbEntity
  8
0
  6
Continuous
100
AcDbLine
 10
167.502379079
 20
66.2388091796
 30
0.0
 11
167.502379079
 21
62.2388103866
 31
0.0
  0
LINE
  5
26C
330
2
100
AcDbEntity
  8
0
  6
Continuous
100
AcDbLine
 10
162.0523790238999
 20
69.2415365839
 30
0.0
 11
162.0523790238999
 21
62.2388103866
 31
0.0
  0
LINE
  5
26D
330
2
100
AcDbEntity
  8
0
  6
Continuous
100
AcDbLine
 10
167.502379079
 20
57.7388087177
 30
0.0
 11
162.0523790238999
 21
57.7388087177
 31
0.0
  0
LINE
  5
26E
330
2
100
AcDbEntity
  8
0
  6
Continuous
100
AcDbLine
 10
167.502379079
 20
59.7358083242
 30
0.0
 11
162.0523790238999
 21
59.7358083242
 31
0.0
  0
LINE
  5
26F
330
2
100
AcDbEntity
  8
0
  6
Continuous
100
AcDbLine
 10
162.0523790238999
 20
62.2388103866
 30
0.0
 11
162.0523790238999
 21
57.7388087177
 31
0.0
  0
LINE
  5
270
330
2
100
AcDbEntity
  8
0
  6
Continuous
100
AcDbLine
 10
167.502379079
 20
62.2388103866
 30
0.0
 11
167.502379079
 21
59.7438102477
 31
0.0
  0
LINE
  5
271
330
2
100
AcDbEntity
  8
0
  6
Continuous
100
AcDbLine
 10
167.502379079
 20
59.7358083242
 30
0.0
 11
167.502379079
 21
57.99027140079999
 31
0.0
  0
LINE
  5
272
330
2
100
AcDbEntity
  8
0
  6
Continuous
100
AcDbLine
 10
167.502379079
 20
57.7401945257
 30
0.0
 11
167.502379079
 21
57.7388087177
 31
0.0
  0
LINE
  5
273
330
2
100
AcDbEntity
  8
0
  6
Continuous
100
AcDbLine
 10
167.502379079
 20
59.7358083242
 30
0.0
 11
167.502379079
 21
57.7401945257
 31
0.0
  0
LINE
  5
274
330
2
100
AcDbEntity
  8
0
  6
Continuous
100
AcDbLine
 10
167.502379079
 20
59.7438102477
 30
0.0
 11
167.502379079
 21
59.7358083242
 31
0.0
  0
LINE
  5
275
330
2
100
AcDbEntity
  8
0
  6
Continuous
100
AcDbLine
 10
167.502379079
 20
66.2428101414
 30
0.0
 11
162.0523790238999
 21
66.2428101414
 31
0.0
  0
LINE
  5
276
330
2
100
AcDbEntity
  8
0
  6
Continuous
100
AcDbLine
 10
167.502379079
 20
69.2415365839
 30
0.0
 11
162.0523790238999
 21
69.2415365839
 31
0.0
  0
LINE
  5
277
330
2
100
AcDbEntity
  8
0
  6
Continuous
100
AcDbLine
 10
167.502379079
 20
68.81933453319999
 30
0.0
 11
167.502379079
 21
66.2428101414
 31
0.0
  0
LINE
  5
278
330
2
100
AcDbEntity
  8
0
  6
Continuous
100
AcDbLine
 10
167.502379079
 20
69.23645901319999
 30
0.0
 11
167.502379079
 21
66.2428101414
 31
0.0
  0
LINE
  5
279
330
2
100
AcDbEntity
  8
0
  6
Continuous
100
AcDbLine
 10
167.502379079
 20
66.2428101414
 30
0.0
 11
167.502379079
 21
66.2388091796
 31
0.0
  0
LINE
  5
27A
330
2
100
AcDbEntity
  8
0
  6
Continuous
100
AcDbLine
 10
167.502379079
 20
69.2415365839
 30
0.0
 11
167.502379079
 21
69.23645901319999
 31
0.0
  0
LINE
  5
27B
330
2
100
AcDbEntity
  8
0
  6
Continuous
100
AcDbLine
 10
155.8523790785999
 20
104.7888098173999
 30
0.0
 11
155.8523790785999
 21
85.738809582
 31
0.0
  0
SPLINE
  5
27C
330
2
100
AcDbEntity
  8
0
  6
Continuous
100
AcDbSpline
210
0.0
220
0.0
230
1.0
 70
     8
 71
     3
 72
    10
 73
     6
 74
     0
 42
0.0000000001
 43
0.0000000001
 40
0.0
 40
0.0
 40
0.0
 40
0.0
 40
0.431576305166158
 40
0.8695865081678537
 40
1.0
 40
1.0
 40
1.0
 40
1.0
 10
151.899687048616
 20
88.91039601351318
 30
0.0
 10
151.8831110507783
 20
88.88958546159857
 30
0.0
 10
151.849711941729
 20
88.84765411607315
 30
0.0
 10
151.6500814848207
 20
88.59202412274406
 30
0.0
 10
151.5129476537514
 20
88.40639780650818
 30
0.0
 10
151.4814850283883
 20
88.36380954656004
 30
0.0
  0
LINE
  5
27D
330
2
100
AcDbEntity
  8
0
  6
Continuous
100
AcDbLine
 10
155.5523791226
 20
85.738809582
 30
0.0
 11
155.5523791226
 21
104.488810327
 31
0.0
  0
LINE
  5
27E
330
2
100
AcDbEntity
  8
0
  6
Continuous
100
AcDbLine
 10
155.5523791226
 20
88.9138095436
 30
0.0
 11
151.8996870486
 21
88.9138095436
 31
0.0
  0
ARC
  5
27F
330
2
100
AcDbEntity
  8
0
  6
Continuous
100
AcDbCircle
 10
155.8523791355999
 20
104.4888095819999
 30
0.0
 40
0.3000000000000114
100
AcDbArc
 50
90.0
 51
180.0
  0
LINE
  5
280
330
2
100
AcDbEntity
  8
0
  6
Continuous
100
AcDbLine
 10
157.0523791356
 20
104.7888098173999
 30
0.0
 11
155.8523790785999
 21
104.7888098173999
 31
0.0
  0
LINE
  5
281
330
2
100
AcDbEntity
  8
0
  6
Continuous
100
AcDbLine
 10
167.502379079
 20
102.23608258
 30
0.0
 11
162.0523790238999
 21
102.23608258
 31
0.0
  0
LINE
  5
282
330
2
100
AcDbEntity
  8
0
  6
Continuous
100
AcDbLine
 10
167.502379079
 20
102.2411601506999
 30
0.0
 11
167.502379079
 21
102.23608258
 31
0.0
  0
LINE
  5
283
330
2
100
AcDbEntity
  8
0
  6
Continuous
100
AcDbLine
 10
232.8523807568999
 20
102.23608258
 30
0.0
 11
232.8523807568999
 21
69.2415365839
 31
0.0
  0
LINE
  5
284
330
2
100
AcDbEntity
  8
0
  6
Continuous
100
AcDbLine
 10
221.9023816627998
 20
102.23608258
 30
0.0
 11
221.9023816627998
 21
69.2415365839
 31
0.0
  0
LINE
  5
285
330
2
100
AcDbEntity
  8
0
  6
Continuous
100
AcDbLine
 10
232.8523807568999
 20
57.7388087177
 30
0.0
 11
221.9023816627998
 21
57.7388087177
 31
0.0
  0
LINE
  5
286
330
2
100
AcDbEntity
  8
0
  6
Continuous
100
AcDbLine
 10
232.8523807568999
 20
59.7358083242
 30
0.0
 11
221.9023816627998
 21
59.7358083242
 31
0.0
  0
LINE
  5
287
330
2
100
AcDbEntity
  8
0
  6
Continuous
100
AcDbLine
 10
232.8523807568999
 20
66.2428101414
 30
0.0
 11
221.9023816627998
 21
66.2428101414
 31
0.0
  0
LINE
  5
288
330
2
100
AcDbEntity
  8
0
  6
Continuous
100
AcDbLine
 10
232.8523807568999
 20
69.23645901319999
 30
0.0
 11
221.9023816627998
 21
69.23645901319999
 31
0.0
  0
LINE
  5
289
330
2
100
AcDbEntity
  8
0
  6
Continuous
100
AcDbLine
 10
221.9023816627998
 20
66.2388091796
 30
0.0
 11
221.9023816627998
 21
62.2388103866
 31
0.0
  0
LINE
  5
28A
330
2
100
AcDbEntity
  8
0
  6
Continuous
100
AcDbLine
 10
221.9023816627998
 20
62.2388103866
 30
0.0
 11
221.9023816627998
 21
59.7438102477
 31
0.0
  0
LINE
  5
28B
330
2
100
AcDbEntity
  8
0
  6
Continuous
100
AcDbLine
 10
221.9023816627998
 20
57.7401945257
 30
0.0
 11
221.9023816627998
 21
57.7388087177
 31
0.0
  0
LINE
  5
28C
330
2
100
AcDbEntity
  8
0
  6
Continuous
100
AcDbLine
 10
221.9023816627998
 20
59.7358083242
 30
0.0
 11
221.9023816627998
 21
57.7401945257
 31
0.0
  0
LINE
  5
28D
330
2
100
AcDbEntity
  8
0
  6
Continuous
100
AcDbLine
 10
221.9023816627998
 20
59.7358083242
 30
0.0
 11
221.9023816627998
 21
57.99027140079999
 31
0.0
  0
LINE
  5
28E
330
2
100
AcDbEntity
  8
0
  6
Continuous
100
AcDbLine
 10
221.9023816627998
 20
59.7438102477
 30
0.0
 11
221.9023816627998
 21
59.7358083242
 31
0.0
  0
LINE
  5
28F
330
2
100
AcDbEntity
  8
0
  6
Continuous
100
AcDbLine
 10
221.9023816627998
 20
69.23645901319999
 30
0.0
 11
221.9023816627998
 21
66.2428101414
 31
0.0
  0
LINE
  5
290
330
2
100
AcDbEntity
  8
0
  6
Continuous
100
AcDbLine
 10
221.9023816627998
 20
68.81933453319999
 30
0.0
 11
221.9023816627998
 21
66.2428101414
 31
0.0
  0
LINE
  5
291
330
2
100
AcDbEntity
  8
0
  6
Continuous
100
AcDbLine
 10
221.9023816627998
 20
66.2428101414
 30
0.0
 11
221.9023816627998
 21
66.2388091796
 31
0.0
  0
LINE
  5
292
330
2
100
AcDbEntity
  8
0
  6
Continuous
100
AcDbLine
 10
221.9023816627998
 20
69.2415365839
 30
0.0
 11
221.9023816627998
 21
69.23645901319999
 31
0.0
  0
LINE
  5
293
330
2
100
AcDbEntity
  8
0
  6
Continuous
100
AcDbLine
 10
232.8523807568999
 20
66.2388091796
 30
0.0
 11
232.8523807568999
 21
62.2388103866
 31
0.0
  0
LINE
  5
294
330
2
100
AcDbEntity
  8
0
  6
Continuous
100
AcDbLine
 10
232.8523807568999
 20
62.2388103866
 30
0.0
 11
232.8523807568999
 21
59.7438102477
 31
0.0
  0
LINE
  5
295
330
2
100
AcDbEntity
  8
0
  6
Continuous
100
AcDbLine
 10
232.8523807568999
 20
57.7401945257
 30
0.0
 11
232.8523807568999
 21
57.7388087177
 31
0.0
  0
LINE
  5
296
330
2
100
AcDbEntity
  8
0
  6
Continuous
100
AcDbLine
 10
232.8523807568999
 20
59.7358083242
 30
0.0
 11
232.8523807568999
 21
57.7401945257
 31
0.0
  0
LINE
  5
297
330
2
100
AcDbEntity
  8
0
  6
Continuous
100
AcDbLine
 10
232.8523807568999
 20
59.7438102477
 30
0.0
 11
232.8523807568999
 21
59.7358083242
 31
0.0
  0
LINE
  5
298
330
2
100
AcDbEntity
  8
0
  6
Continuous
100
AcDbLine
 10
232.8523807568999
 20
69.23645901319999
 30
0.0
 11
232.8523807568999
 21
66.2428101414
 31
0.0
  0
LINE
  5
299
330
2
100
AcDbEntity
  8
0
  6
Continuous
100
AcDbLine
 10
232.8523807568999
 20
66.2428101414
 30
0.0
 11
232.8523807568999
 21
66.2388091796
 31
0.0
  0
LINE
  5
29A
330
2
100
AcDbEntity
  8
0
  6
Continuous
100
AcDbLine
 10
232.8523807568999
 20
69.2415365839
 30
0.0
 11
232.8523807568999
 21
69.23645901319999
 31
0.0
  0
LINE
  5
29B
330
2
100
AcDbEntity
  8
0
  6
Continuous
100
AcDbLine
 10
232.8523807568999
 20
102.23608258
 30
0.0
 11
221.9023816627998
 21
102.23608258
 31
0.0
  0
LINE
  5
29C
330
2
100
AcDbEntity
  8
0
  6
Continuous
100
AcDbLine
 10
221.9023816627998
 20
102.2411601506999
 30
0.0
 11
221.9023816627998
 21
102.23608258
 31
0.0
  0
LINE
  5
29D
330
2
100
AcDbEntity
  8
0
  6
Continuous
100
AcDbLine
 10
232.8523807568999
 20
102.2411601506999
 30
0.0
 11
232.8523807568999
 21
102.23608258
 31
0.0
  0
DIMENSION
  5
29E
330
2
100
AcDbEntity
  8
DIMS
100
AcDbDimension
  2
*D25
 10
263.4512764387998
 20
66.7388250687
 30
0.0
 11
263.4512764387998
 21
76.23881732529999
 31
0.0
 70
   128
 71
     2
 42
-1.0
  3
SLDDIMSTYLE3
100
AcDbAlignedDimension
 13
258.3558749666999
 23
85.738809582
 33
0.0
 14
256.8523791356
 24
66.7388250687
 34
0.0
 50
90.0
100
AcDbRotatedDimension
  0
LINE
  5
2A8
330
2
100
AcDbEntity
  8
0
  6
Continuous
100
AcDbLine
 10
256.8523772402
 20
66.73882509409999
 30
0.0
 11
250.5523823543
 21
66.73882509409999
 31
0.0
  0
LINE
  5
2A9
330
2
100
AcDbEntity
  8
0
  6
Continuous
100
AcDbLine
 10
256.8523772402
 20
70.73882481840001
 30
0.0
 11
250.5523823543
 21
70.73882481840001
 31
0.0
  0
LINE
  5
2AA
330
2
100
AcDbEntity
  8
0
  6
Continuous
100
AcDbLine
 10
250.0523813409999
 20
70.7388099172
 30
0.0
 11
250.0523813409999
 21
66.7388101929
 31
0.0
  0
LINE
  5
2AB
330
2
100
AcDbEntity
  8
0
  6
Continuous
100
AcDbLine
 10
250.5523823543
 20
66.73882509409999
 30
0.0
 11
250.5523823543
 21
70.73882481840001
 31
0.0
  0
LINE
  5
2AC
330
2
100
AcDbEntity
  8
0
  6
Continuous
100
AcDbLine
 10
250.0523813409999
 20
67.2388242447
 30
0.0
 11
250.5523823543
 21
67.2388242447
 31
0.0
  0
LINE
  5
2AD
330
2
100
AcDbEntity
  8
0
  6
Continuous
100
AcDbLine
 10
250.0523813409999
 20
70.9459314012
 30
0.0
 11
250.5523823543
 21
70.9459314012
 31
0.0
  0
LINE
  5
2AE
330
2
100
AcDbEntity
  8
0
  6
Continuous
100
AcDbLine
 10
256.8523772402
 20
66.73882509409999
 30
0.0
 11
256.8523772402
 21
70.73882481840001
 31
0.0
  0
LINE
  5
2AF
330
2
100
AcDbEntity
  8
0
  6
Continuous
100
AcDbLine
 10
234.8523773593999
 20
193.5287130849999
 30
0.0
 11
250.0523813409999
 21
193.5287130849999
 31
0.0
  0
LINE
  5
2B0
330
2
100
AcDbEntity
  8
0
  6
Continuous
100
AcDbLine
 10
234.8523773593999
 20
151.5287136513
 30
0.0
 11
250.0523813409999
 21
151.5287136513
 31
0.0
  0
LINE
  5
2B1
330
2
100
AcDbEntity
  8
0
  6
Continuous
100
AcDbLine
 10
234.8523773593999
 20
189.528714292
 30
0.0
 11
250.0523813409999
 21
189.528714292
 31
0.0
  0
LINE
  5
2B2
330
2
100
AcDbEntity
  8
0
  6
Continuous
100
AcDbLine
 10
234.8523773593999
 20
155.5287124442999
 30
0.0
 11
250.0523813409999
 21
155.5287124442999
 31
0.0
  0
DIMENSION
  5
2B3
330
2
100
AcDbEntity
  8
DIMS
100
AcDbDimension
  2
*D20
 10
256.8523791356
 20
138.5488929211
 30
0.0
 11
238.5523791355999
 21
138.5488929211
 31
0.0
 70
   128
 71
     2
 42
-1.0
  3
SLDDIMSTYLE3
100
AcDbAlignedDimension
 13
220.2523791356
 23
127.938809582
 33
0.0
 14
256.8523791356
 24
119.7388250687
 34
0.0
100
AcDbRotatedDimension
  0
LINE
  5
2BD
330
2
100
AcDbEntity
  8
0
  6
Continuous
100
AcDbLine
 10
234.8523773593999
 20
119.7388114296998
 30
0.0
 11
250.0523813409999
 21
119.7388114296998
 31
0.0
  0
LINE
  5
2BE
330
2
100
AcDbEntity
  8
0
  6
Continuous
100
AcDbLine
 10
234.8523773593999
 20
115.7388089114
 30
0.0
 11
250.0523813409999
 21
115.7388089114
 31
0.0
  0
LINE
  5
2BF
330
2
100
AcDbEntity
  8
0
  6
Continuous
100
AcDbLine
 10
155.8523790785999
 20
191.5787136035998
 30
0.0
 11
155.8523790785999
 21
153.4787131327
 31
0.0
  0
LINE
  5
2C0
330
2
100
AcDbEntity
  8
0
  6
Continuous
100
AcDbLine
 10
155.5523791226
 20
153.7787126231
 30
0.0
 11
155.5523791226
 21
191.2787141132
 31
0.0
  0
LINE
  5
2C1
330
2
100
AcDbEntity
  8
0
  6
Continuous
100
AcDbLine
 10
157.0523791356
 20
149.0287141727999
 30
0.0
 11
157.0523791356
 21
196.0287125635
 31
0.0
  0
LINE
  5
2C2
330
2
100
AcDbEntity
  8
0
  6
Continuous
100
AcDbLine
 10
167.502379079
 20
189.0259863661999
 30
0.0
 11
167.502379079
 21
156.03144037
 31
0.0
  0
LINE
  5
2C3
330
2
100
AcDbEntity
  8
0
  6
Continuous
100
AcDbLine
 10
157.5523791594
 20
196.0287125635
 30
0.0
 11
157.5523791594
 21
149.0287141727999
 31
0.0
  0
LINE
  5
2C4
330
2
100
AcDbEntity
  8
0
  6
Continuous
100
AcDbLine
 10
220.2523760839
 20
185.8187135163
 30
0.0
 11
220.2523760839
 21
159.23871322
 31
0.0
  0
LINE
  5
2C5
330
2
100
AcDbEntity
  8
0
  6
Continuous
100
AcDbLine
 10
234.8623760386
 20
159.23871322
 30
0.0
 11
234.8623760386
 21
185.8187135163
 31
0.0
  0
LINE
  5
2C6
330
2
100
AcDbEntity
  8
0
  6
Continuous
100
AcDbLine
 10
221.9023816627998
 20
144.7787130104998
 30
0.0
 11
167.502379079
 21
144.7787130104998
 31
0.0
  0
LINE
  5
2C7
330
2
100
AcDbEntity
  8
0
  6
Continuous
100
AcDbLine
 10
221.9023816627998
 20
146.5257121104
 30
0.0
 11
167.502379079
 21
146.5257121104
 31
0.0
  0
LINE
  5
2C8
330
2
100
AcDbEntity
  8
0
  6
Continuous
100
AcDbLine
 10
221.9023816627998
 20
153.0327139276
 30
0.0
 11
167.502379079
 21
153.0327139276
 31
0.0
  0
LINE
  5
2C9
330
2
100
AcDbEntity
  8
0
  6
Continuous
100
AcDbLine
 10
221.9023816627998
 20
155.6144444125
 30
0.0
 11
167.502379079
 21
155.6144444125
 31
0.0
  0
LINE
  5
2CA
330
2
100
AcDbEntity
  8
0
  6
Continuous
100
AcDbLine
 10
221.9023816627998
 20
113.4888099395999
 30
0.0
 11
167.502379079
 21
113.4888099395999
 31
0.0
  0
LINE
  5
2CB
330
2
100
AcDbEntity
  8
0
  6
Continuous
100
AcDbLine
 10
221.9023816627998
 20
111.7338089162
 30
0.0
 11
167.502379079
 21
111.7338089162
 31
0.0
  0
LINE
  5
2CC
330
2
100
AcDbEntity
  8
0
  6
Continuous
100
AcDbLine
 10
221.9023816627998
 20
105.2348090224999
 30
0.0
 11
167.502379079
 21
105.2348090224999
 31
0.0
  0
DIMENSION
  5
2CD
330
2
100
AcDbEntity
  8
DIMS
100
AcDbDimension
  2
*D28
 10
162.0523791355998
 20
117.6635187860999
 30
0.0
 11
165.6061095809999
 21
117.6635187860999
 31
0.0
 70
   128
 71
     2
 42
-1.0
  3
SLDDIMSTYLE8
100
AcDbAlignedDimension
 13
157.0523791356
 23
113.238809582
 33
0.0
 14
162.0523791355998
 24
113.738809582
 34
0.0
100
AcDbRotatedDimension
  0
LINE
  5
2DA
330
2
100
AcDbEntity
  8
0
  6
Continuous
100
AcDbLine
 10
162.0523790238999
 20
113.7388104462
 30
0.0
 11
157.5523791594
 21
113.7388104462
 31
0.0
  0
LINE
  5
2DB
330
2
100
AcDbEntity
  8
0
  6
Continuous
100
AcDbLine
 10
157.0523791356
 20
109.2388087772999
 30
0.0
 11
157.0523791356
 21
113.2388094329
 31
0.0
  0
LINE
  5
2DC
330
2
100
AcDbEntity
  8
0
  6
Continuous
100
AcDbLine
 10
157.5523791594
 20
113.7388104462
 30
0.0
 11
157.5523791594
 21
109.2388087772999
 31
0.0
  0
LINE
  5
2DD
330
2
100
AcDbEntity
  8
0
  6
Continuous
100
AcDbLine
 10
157.5523791594
 20
113.7388104462
 30
0.0
 11
157.0523791356
 21
113.2388094329
 31
0.0
  0
LINE
  5
2DE
330
2
100
AcDbEntity
  8
0
  6
Continuous
100
AcDbLine
 10
167.502379079
 20
113.4873477630998
 30
0.0
 11
167.502379079
 21
111.7418108397
 31
0.0
  0
LINE
  5
2DF
330
2
100
AcDbEntity
  8
0
  6
Continuous
100
AcDbLine
 10
167.502379079
 20
113.7374246382
 30
0.0
 11
167.502379079
 21
111.7418108397
 31
0.0
  0
LINE
  5
2E0
330
2
100
AcDbEntity
  8
0
  6
Continuous
100
AcDbLine
 10
162.0523790238999
 20
113.7388104462
 30
0.0
 11
162.0523790238999
 21
109.2388087772999
 31
0.0
  0
LINE
  5
2E1
330
2
100
AcDbEntity
  8
0
  6
Continuous
100
AcDbLine
 10
167.502379079
 20
111.7338089162
 30
0.0
 11
162.0523790238999
 21
111.7338089162
 31
0.0
  0
LINE
  5
2E2
330
2
100
AcDbEntity
  8
0
  6
Continuous
100
AcDbLine
 10
167.502379079
 20
105.2348090224999
 30
0.0
 11
162.0523790238999
 21
105.2348090224999
 31
0.0
  0
LINE
  5
2E3
330
2
100
AcDbEntity
  8
0
  6
Continuous
100
AcDbLine
 10
167.502379079
 20
109.2388087772999
 30
0.0
 11
167.502379079
 21
105.2388099842999
 31
0.0
  0
LINE
  5
2E4
330
2
100
AcDbEntity
  8
0
  6
Continuous
100
AcDbLine
 10
167.502379079
 20
105.2388099842999
 30
0.0
 11
167.502379079
 21
105.2348090224999
 31
0.0
  0
LINE
  5
2E5
330
2
100
AcDbEntity
  8
0
  6
Continuous
100
AcDbLine
 10
167.502379079
 20
111.7338089162
 30
0.0
 11
167.502379079
 21
109.2388087772999
 31
0.0
  0
LINE
  5
2E6
330
2
100
AcDbEntity
  8
0
  6
Continuous
100
AcDbLine
 10
167.502379079
 20
111.7418108397
 30
0.0
 11
167.502379079
 21
111.7338089162
 31
0.0
  0
LINE
  5
2E7
330
2
100
AcDbEntity
  8
0
  6
Continuous
100
AcDbLine
 10
167.502379079
 20
113.7388104462
 30
0.0
 11
162.0523790238999
 21
113.7388104462
 31
0.0
  0
LINE
  5
2E8
330
2
100
AcDbEntity
  8
0
  6
Continuous
100
AcDbLine
 10
167.502379079
 20
113.7388104462
 30
0.0
 11
167.502379079
 21
113.7374246382
 31
0.0
  0
LINE
  5
2E9
330
2
100
AcDbEntity
  8
0
  6
Continuous
100
AcDbLine
 10
167.502379079
 20
155.6092383193998
 30
0.0
 11
167.502379079
 21
153.0327139276
 31
0.0
  0
LINE
  5
2EA
330
2
100
AcDbEntity
  8
0
  6
Continuous
100
AcDbLine
 10
167.502379079
 20
156.0263627994
 30
0.0
 11
167.502379079
 21
153.0327139276
 31
0.0
  0
LINE
  5
2EB
330
2
100
AcDbEntity
  8
0
  6
Continuous
100
AcDbLine
 10
162.0523790238999
 20
156.03144037
 30
0.0
 11
162.0523790238999
 21
149.0287141727999
 31
0.0
  0
LINE
  5
2EC
330
2
100
AcDbEntity
  8
0
  6
Continuous
100
AcDbLine
 10
162.0523790238999
 20
144.5287125038998
 30
0.0
 11
157.5523791594
 21
144.5287125038998
 31
0.0
  0
LINE
  5
2ED
330
2
100
AcDbEntity
  8
0
  6
Continuous
100
AcDbLine
 10
157.0523791356
 20
145.0287135170998
 30
0.0
 11
157.0523791356
 21
149.0287141727999
 31
0.0
  0
LINE
  5
2EE
330
2
100
AcDbEntity
  8
0
  6
Continuous
100
AcDbLine
 10
157.5523791594
 20
149.0287141727999
 30
0.0
 11
157.5523791594
 21
144.5287125038998
 31
0.0
  0
LINE
  5
2EF
330
2
100
AcDbEntity
  8
0
  6
Continuous
100
AcDbLine
 10
157.5523791594
 20
144.5287125038998
 30
0.0
 11
157.0523791356
 21
145.0287135170998
 31
0.0
  0
ARC
  5
2F0
330
2
100
AcDbEntity
  8
0
  6
Continuous
100
AcDbCircle
 10
155.8523791355999
 20
153.7787133681
 30
0.0
 40
0.3000000000000114
100
AcDbArc
 50
180.0
 51
270.0
  0
LINE
  5
2F1
330
2
100
AcDbEntity
  8
0
  6
Continuous
100
AcDbLine
 10
155.8523790785999
 20
153.4787131327
 30
0.0
 11
157.0523791356
 21
153.4787131327
 31
0.0
  0
LINE
  5
2F2
330
2
100
AcDbEntity
  8
0
  6
Continuous
100
AcDbLine
 10
167.502379079
 20
146.5257121104
 30
0.0
 11
167.502379079
 21
144.7801751869
 31
0.0
  0
LINE
  5
2F3
330
2
100
AcDbEntity
  8
0
  6
Continuous
100
AcDbLine
 10
167.502379079
 20
146.5257121104
 30
0.0
 11
167.502379079
 21
144.5300983119
 31
0.0
  0
LINE
  5
2F4
330
2
100
AcDbEntity
  8
0
  6
Continuous
100
AcDbLine
 10
162.0523790238999
 20
149.0287141727999
 30
0.0
 11
162.0523790238999
 21
144.5287125038998
 31
0.0
  0
LINE
  5
2F5
330
2
100
AcDbEntity
  8
0
  6
Continuous
100
AcDbLine
 10
167.502379079
 20
144.5287125038998
 30
0.0
 11
162.0523790238999
 21
144.5287125038998
 31
0.0
  0
LINE
  5
2F6
330
2
100
AcDbEntity
  8
0
  6
Continuous
100
AcDbLine
 10
167.502379079
 20
144.5300983119
 30
0.0
 11
167.502379079
 21
144.5287125038998
 31
0.0
  0
LINE
  5
2F7
330
2
100
AcDbEntity
  8
0
  6
Continuous
100
AcDbLine
 10
167.502379079
 20
146.5257121104
 30
0.0
 11
162.0523790238999
 21
146.5257121104
 31
0.0
  0
LINE
  5
2F8
330
2
100
AcDbEntity
  8
0
  6
Continuous
100
AcDbLine
 10
167.502379079
 20
153.0327139276
 30
0.0
 11
162.0523790238999
 21
153.0327139276
 31
0.0
  0
LINE
  5
2F9
330
2
100
AcDbEntity
  8
0
  6
Continuous
100
AcDbLine
 10
167.502379079
 20
153.0287129658
 30
0.0
 11
167.502379079
 21
149.0287141727999
 31
0.0
  0
LINE
  5
2FA
330
2
100
AcDbEntity
  8
0
  6
Continuous
100
AcDbLine
 10
167.502379079
 20
149.0287141727999
 30
0.0
 11
167.502379079
 21
146.5337140339
 31
0.0
  0
LINE
  5
2FB
330
2
100
AcDbEntity
  8
0
  6
Continuous
100
AcDbLine
 10
167.502379079
 20
146.5337140339
 30
0.0
 11
167.502379079
 21
146.5257121104
 31
0.0
  0
LINE
  5
2FC
330
2
100
AcDbEntity
  8
0
  6
Continuous
100
AcDbLine
 10
167.502379079
 20
153.0327139276
 30
0.0
 11
167.502379079
 21
153.0287129658
 31
0.0
  0
LINE
  5
2FD
330
2
100
AcDbEntity
  8
0
  6
Continuous
100
AcDbLine
 10
167.502379079
 20
156.03144037
 30
0.0
 11
162.0523790238999
 21
156.03144037
 31
0.0
  0
LINE
  5
2FE
330
2
100
AcDbEntity
  8
0
  6
Continuous
100
AcDbLine
 10
167.502379079
 20
156.03144037
 30
0.0
 11
167.502379079
 21
156.0263627994
 31
0.0
  0
DIMENSION
  5
2FF
330
2
100
AcDbEntity
  8
DIMS
100
AcDbDimension
  2
*D21
 10
234.8623791356
 20
131.9083950435999
 30
0.0
 11
227.5573791355999
 21
131.9083950435999
 31
0.0
 70
   128
 71
     2
 42
-1.0
  3
SLDDIMSTYLE11
100
AcDbAlignedDimension
 13
220.2523791356
 23
127.938809582
 33
0.0
 14
234.8623791356
 24
127.9488929211
 34
0.0
100
AcDbRotatedDimension
  0
DIMENSION
  5
30C
330
2
100
AcDbEntity
  8
DIMS
100
AcDbDimension
  2
*D19
 10
213.8346636259999
 20
113.738809582
 30
0.0
 11
213.8346636259999
 21
121.1438095819999
 31
0.0
 70
   128
  1
(<>)
 71
     2
 42
-1.0
  3
SLDDIMSTYLE3
100
AcDbAlignedDimension
 13
220.8623791356
 23
128.548809582
 33
0.0
 14
221.9023791356
 24
113.738809582
 34
0.0
 50
90.0
100
AcDbRotatedDimension
  0
LINE
  5
318
330
2
100
AcDbEntity
  8
0
  6
Continuous
100
AcDbLine
 10
220.2523760839
 20
113.9388101064999
 30
0.0
 11
220.2523760839
 21
127.938808676
 31
0.0
  0
LINE
  5
319
330
2
100
AcDbEntity
  8
0
  6
Continuous
100
AcDbLine
 10
234.8623760386
 20
119.7488101088999
 30
0.0
 11
234.8623760386
 21
127.9488930367999
 31
0.0
  0
LINE
  5
31A
330
2
100
AcDbEntity
  8
0
  6
Continuous
100
AcDbLine
 10
232.8523807568999
 20
113.7388104462
 30
0.0
 11
221.9023816627998
 21
113.7388104462
 31
0.0
  0
LINE
  5
31B
330
2
100
AcDbEntity
  8
0
  6
Continuous
100
AcDbLine
 10
232.8523807568999
 20
111.7338089162
 30
0.0
 11
221.9023816627998
 21
111.7338089162
 31
0.0
  0
LINE
  5
31C
330
2
100
AcDbEntity
  8
0
  6
Continuous
100
AcDbLine
 10
232.8523807568999
 20
105.2348090224999
 30
0.0
 11
221.9023816627998
 21
105.2348090224999
 31
0.0
  0
LINE
  5
31D
330
2
100
AcDbEntity
  8
0
  6
Continuous
100
AcDbLine
 10
234.2523821039
 20
113.9388101064999
 30
0.0
 11
220.8523787899
 21
113.9388101064999
 31
0.0
  0
LINE
  5
31E
330
2
100
AcDbEntity
  8
0
  6
Continuous
100
AcDbLine
 10
221.9023816627998
 20
113.7374246382
 30
0.0
 11
221.9023816627998
 21
111.7418108397
 31
0.0
  0
LINE
  5
31F
330
2
100
AcDbEntity
  8
0
  6
Continuous
100
AcDbLine
 10
221.9023816627998
 20
113.4873477630998
 30
0.0
 11
221.9023816627998
 21
111.7418108397
 31
0.0
  0
LINE
  5
320
330
2
100
AcDbEntity
  8
0
  6
Continuous
100
AcDbLine
 10
221.9023816627998
 20
109.2388087772999
 30
0.0
 11
221.9023816627998
 21
105.2388099842999
 31
0.0
  0
LINE
  5
321
330
2
100
AcDbEntity
  8
0
  6
Continuous
100
AcDbLine
 10
221.9023816627998
 20
105.2388099842999
 30
0.0
 11
221.9023816627998
 21
105.2348090224999
 31
0.0
  0
LINE
  5
322
330
2
100
AcDbEntity
  8
0
  6
Continuous
100
AcDbLine
 10
221.9023816627998
 20
111.7338089162
 30
0.0
 11
221.9023816627998
 21
109.2388087772999
 31
0.0
  0
LINE
  5
323
330
2
100
AcDbEntity
  8
0
  6
Continuous
100
AcDbLine
 10
221.9023816627998
 20
111.7418108397
 30
0.0
 11
221.9023816627998
 21
111.7338089162
 31
0.0
  0
LINE
  5
324
330
2
100
AcDbEntity
  8
0
  6
Continuous
100
AcDbLine
 10
220.8523787899
 20
113.9388101064999
 30
0.0
 11
220.2523760839
 21
113.9388101064999
 31
0.0
  0
LINE
  5
325
330
2
100
AcDbEntity
  8
0
  6
Continuous
100
AcDbLine
 10
221.9023816627998
 20
113.7388104462
 30
0.0
 11
221.9023816627998
 21
113.7374246382
 31
0.0
  0
LINE
  5
326
330
2
100
AcDbEntity
  8
0
  6
Continuous
100
AcDbLine
 10
232.8523807568999
 20
106.1163114273
 30
0.0
 11
232.8523807568999
 21
113.5388089232999
 31
0.0
  0
LINE
  5
327
330
2
100
AcDbEntity
  8
0
  6
Continuous
100
AcDbLine
 10
232.8523807568999
 20
106.1163114273
 30
0.0
 11
232.8523807568999
 21
105.2388099842999
 31
0.0
  0
LINE
  5
328
330
2
100
AcDbEntity
  8
0
  6
Continuous
100
AcDbLine
 10
232.8523807568999
 20
105.2388099842999
 30
0.0
 11
232.8523807568999
 21
105.2348090224999
 31
0.0
  0
LINE
  5
329
330
2
100
AcDbEntity
  8
0
  6
Continuous
100
AcDbLine
 10
234.8523773593999
 20
115.7388089114
 30
0.0
 11
234.8523773593999
 21
119.7388114296998
 31
0.0
  0
LINE
  5
32A
330
2
100
AcDbEntity
  8
0
  6
Continuous
100
AcDbLine
 10
231.4523794098
 20
114.7888095939
 30
0.0
 11
231.4523794098
 21
118.2888092362
 31
0.0
  0
LINE
  5
32B
330
2
100
AcDbEntity
  8
0
  6
Continuous
100
AcDbLine
 10
233.1523783845999
 20
118.9888099098
 30
0.0
 11
233.1523783845999
 21
114.0888089203
 31
0.0
  0
LINE
  5
32C
330
2
100
AcDbEntity
  8
0
  6
Continuous
100
AcDbLine
 10
234.2523821039
 20
118.7454739475
 30
0.0
 11
234.2523821039
 21
114.33214302
 31
0.0
  0
LINE
  5
32D
330
2
100
AcDbEntity
  8
0
  6
Continuous
100
AcDbLine
 10
233.7523810906
 20
119.0388107562
 30
0.0
 11
233.7523810906
 21
114.0388099366
 31
0.0
  0
LINE
  5
32E
330
2
100
AcDbEntity
  8
0
  6
Continuous
100
AcDbLine
 10
231.9523804231
 20
114.2888104431999
 30
0.0
 11
233.1523783845999
 21
114.2888104431999
 31
0.0
  0
ARC
  5
32F
330
2
100
AcDbEntity
  8
0
  6
Continuous
100
AcDbCircle
 10
231.9523791356
 20
114.788809582
 30
0.0
 40
0.5
100
AcDbArc
 50
180.0
 51
270.0
  0
LINE
  5
330
330
2
100
AcDbEntity
  8
0
  6
Continuous
100
AcDbLine
 10
232.8523807568999
 20
113.7388104462
 30
0.0
 11
232.8523807568999
 21
113.7374246382
 31
0.0
  0
LINE
  5
331
330
2
100
AcDbEntity
  8
0
  6
Continuous
100
AcDbLine
 10
232.8523807568999
 20
113.7374246382
 30
0.0
 11
232.8523807568999
 21
113.5388089232999
 31
0.0
  0
LINE
  5
332
330
2
100
AcDbEntity
  8
0
  6
Continuous
100
AcDbLine
 10
234.8523773593999
 20
113.5388089232999
 30
0.0
 11
232.8523807568999
 21
113.5388089232999
 31
0.0
  0
LINE
  5
333
330
2
100
AcDbEntity
  8
0
  6
Continuous
100
AcDbLine
 10
234.8523773593999
 20
113.5388089232999
 30
0.0
 11
234.8523773593999
 21
115.7388089114
 31
0.0
  0
LINE
  5
334
330
2
100
AcDbEntity
  8
0
  6
Continuous
100
AcDbLine
 10
234.2523821039
 20
114.33214302
 30
0.0
 11
234.2523821039
 21
113.9388101064999
 31
0.0
  0
LINE
  5
335
330
2
100
AcDbEntity
  8
0
  6
Continuous
100
AcDbLine
 10
234.8523773593999
 20
113.9388101064999
 30
0.0
 11
234.2523821039
 21
113.9388101064999
 31
0.0
  0
LINE
  5
336
330
2
100
AcDbEntity
  8
0
  6
Continuous
100
AcDbLine
 10
233.1523783845999
 20
114.0888089203
 30
0.0
 11
233.7523810906
 21
114.0888089203
 31
0.0
  0
LINE
  5
337
330
2
100
AcDbEntity
  8
0
  6
Continuous
100
AcDbLine
 10
233.7523810906
 20
114.0388099366
 30
0.0
 11
234.2523821039
 21
114.0388099366
 31
0.0
  0
LINE
  5
338
330
2
100
AcDbEntity
  8
0
  6
Continuous
100
AcDbLine
 10
233.1523783845999
 20
118.7888102495
 30
0.0
 11
231.9523804231
 21
118.7888102495
 31
0.0
  0
ARC
  5
339
330
2
100
AcDbEntity
  8
0
  6
Continuous
100
AcDbCircle
 10
231.9523791356
 20
118.288809582
 30
0.0
 40
0.5
100
AcDbArc
 50
90.0
 51
180.0
  0
LINE
  5
33A
330
2
100
AcDbEntity
  8
0
  6
Continuous
100
AcDbLine
 10
234.8623760386
 20
119.7388114296998
 30
0.0
 11
234.8623760386
 21
119.7488101088999
 31
0.0
  0
LINE
  5
33B
330
2
100
AcDbEntity
  8
0
  6
Continuous
100
AcDbLine
 10
234.2623807830999
 20
119.1388087236
 30
0.0
 11
234.2623807830999
 21
119.7488101088999
 31
0.0
  0
LINE
  5
33C
330
2
100
AcDbEntity
  8
0
  6
Continuous
100
AcDbLine
 10
234.2523821039
 20
119.1388087236
 30
0.0
 11
234.2523821039
 21
119.7488101088999
 31
0.0
  0
LINE
  5
33D
330
2
100
AcDbEntity
  8
0
  6
Continuous
100
AcDbLine
 10
234.2523821039
 20
119.7488101088999
 30
0.0
 11
234.8623760386
 21
119.7488101088999
 31
0.0
  0
LINE
  5
33E
330
2
100
AcDbEntity
  8
0
  6
Continuous
100
AcDbLine
 10
234.2523821039
 20
119.1388087236
 30
0.0
 11
234.2523821039
 21
118.7454739475
 31
0.0
  0
LINE
  5
33F
330
2
100
AcDbEntity
  8
0
  6
Continuous
100
AcDbLine
 10
234.8523773593999
 20
119.1388087236
 30
0.0
 11
234.2523821039
 21
119.1388087236
 31
0.0
  0
LINE
  5
340
330
2
100
AcDbEntity
  8
0
  6
Continuous
100
AcDbLine
 10
233.7523810906
 20
118.9888099098
 30
0.0
 11
233.1523783845999
 21
118.9888099098
 31
0.0
  0
LINE
  5
341
330
2
100
AcDbEntity
  8
0
  6
Continuous
100
AcDbLine
 10
234.2523821039
 20
119.0388107562
 30
0.0
 11
233.7523810906
 21
119.0388107562
 31
0.0
  0
LINE
  5
342
330
2
100
AcDbEntity
  8
0
  6
Continuous
100
AcDbLine
 10
229.2523794216999
 20
128.5488100612
 30
0.0
 11
229.8523821277999
 21
128.5488100612
 31
0.0
  0
LINE
  5
343
330
2
100
AcDbEntity
  8
0
  6
Continuous
100
AcDbLine
 10
229.8523821277999
 20
127.9488110804
 30
0.0
 11
220.8523787899
 21
127.9488110804
 31
0.0
  0
LINE
  5
344
330
2
100
AcDbEntity
  8
0
  6
Continuous
100
AcDbLine
 10
220.8623774691
 20
128.5488100612
 30
0.0
 11
229.2523794216999
 21
128.5488100612
 31
0.0
  0
LINE
  5
345
330
2
100
AcDbEntity
  8
0
  6
Continuous
100
AcDbLine
 10
220.8523787899
 20
127.9488110804
 30
0.0
 11
220.8623774691
 21
127.9488110804
 31
0.0
  0
LINE
  5
346
330
2
100
AcDbEntity
  8
0
  6
Continuous
100
AcDbLine
 10
220.8523787899
 20
128.5488100612
 30
0.0
 11
220.8623774691
 21
128.5488100612
 31
0.0
  0
ARC
  5
347
330
2
100
AcDbEntity
  8
0
  6
Continuous
100
AcDbCircle
 10
220.8523791356
 20
127.948809582
 30
0.0
 40
0.6000000000000229
100
AcDbArc
 50
90.0
 51
180.0
  0
LINE
  5
348
330
2
100
AcDbEntity
  8
0
  6
Continuous
100
AcDbLine
 10
220.8523787899
 20
128.5488100612
 30
0.0
 11
220.8523787899
 21
127.9488110804
 31
0.0
  0
LINE
  5
349
330
2
100
AcDbEntity
  8
0
  6
Continuous
100
AcDbLine
 10
220.2523760839
 20
127.9488110804
 30
0.0
 11
220.2523760839
 21
127.938808676
 31
0.0
  0
LINE
  5
34A
330
2
100
AcDbEntity
  8
0
  6
Continuous
100
AcDbLine
 10
220.8523787899
 20
127.9488110804
 30
0.0
 11
220.2523760839
 21
127.9488110804
 31
0.0
  0
LINE
  5
34B
330
2
100
AcDbEntity
  8
0
  6
Continuous
100
AcDbLine
 10
229.2523794216999
 20
128.5488100612
 30
0.0
 11
229.2523794216999
 21
127.9488110804
 31
0.0
  0
LINE
  5
34C
330
2
100
AcDbEntity
  8
0
  6
Continuous
100
AcDbLine
 10
229.8523821277999
 20
128.5488100612
 30
0.0
 11
234.2523821039
 21
128.5488100612
 31
0.0
  0
LINE
  5
34D
330
2
100
AcDbEntity
  8
0
  6
Continuous
100
AcDbLine
 10
229.8523821277999
 20
127.938808676
 30
0.0
 11
229.8523821277999
 21
128.5488100612
 31
0.0
  0
ARC
  5
34E
330
2
100
AcDbEntity
  8
0
  6
Continuous
100
AcDbCircle
 10
234.2623791356
 20
127.9488929211
 30
0.0
 40
0.6000000000000071
100
AcDbArc
 50
0.0
 51
90.95497387379998
  0
LINE
  5
34F
330
2
100
AcDbEntity
  8
0
  6
Continuous
100
AcDbLine
 10
221.9023816627998
 20
156.0263627994
 30
0.0
 11
221.9023816627998
 21
153.0327139276
 31
0.0
  0
LINE
  5
350
330
2
100
AcDbEntity
  8
0
  6
Continuous
100
AcDbLine
 10
221.9023816627998
 20
155.6092383193998
 30
0.0
 11
221.9023816627998
 21
153.0327139276
 31
0.0
  0
LINE
  5
351
330
2
100
AcDbEntity
  8
0
  6
Continuous
100
AcDbLine
 10
234.8523773593999
 20
151.5287136513
 30
0.0
 11
234.8523773593999
 21
155.5287124442999
 31
0.0
  0
LINE
  5
352
330
2
100
AcDbEntity
  8
0
  6
Continuous
100
AcDbLine
 10
233.1523783845999
 20
156.0287134574999
 30
0.0
 11
233.1523783845999
 21
153.5787129628
 31
0.0
  0
LINE
  5
353
330
2
100
AcDbEntity
  8
0
  6
Continuous
100
AcDbLine
 10
233.7523810906
 20
156.0287134574999
 30
0.0
 11
233.7523810906
 21
153.5287139790999
 31
0.0
  0
LINE
  5
354
330
2
100
AcDbEntity
  8
0
  6
Continuous
100
AcDbLine
 10
234.2523821039
 20
154.8537140566
 30
0.0
 11
234.2523821039
 21
153.5287139790999
 31
0.0
  0
ARC
  5
355
330
2
100
AcDbEntity
  8
0
  6
Continuous
100
AcDbCircle
 10
231.9523791356
 20
154.2787133681
 30
0.0
 40
0.5
100
AcDbArc
 50
180.0
 51
270.0
  0
LINE
  5
356
330
2
100
AcDbEntity
  8
0
  6
Continuous
100
AcDbLine
 10
232.8523807568999
 20
144.5287125038998
 30
0.0
 11
221.9023816627998
 21
144.5287125038998
 31
0.0
  0
LINE
  5
357
330
2
100
AcDbEntity
  8
0
  6
Continuous
100
AcDbLine
 10
232.8523807568999
 20
146.5257121104
 30
0.0
 11
221.9023816627998
 21
146.5257121104
 31
0.0
  0
LINE
  5
358
330
2
100
AcDbEntity
  8
0
  6
Continuous
100
AcDbLine
 10
232.8523807568999
 20
153.0327139276
 30
0.0
 11
221.9023816627998
 21
153.0327139276
 31
0.0
  0
LINE
  5
359
330
2
100
AcDbEntity
  8
0
  6
Continuous
100
AcDbLine
 10
221.9023816627998
 20
146.5257121104
 30
0.0
 11
221.9023816627998
 21
144.5300983119
 31
0.0
  0
LINE
  5
35A
330
2
100
AcDbEntity
  8
0
  6
Continuous
100
AcDbLine
 10
221.9023816627998
 20
146.5257121104
 30
0.0
 11
221.9023816627998
 21
144.7801751869
 31
0.0
  0
LINE
  5
35B
330
2
100
AcDbEntity
  8
0
  6
Continuous
100
AcDbLine
 10
221.9023816627998
 20
144.5300983119
 30
0.0
 11
221.9023816627998
 21
144.5287125038998
 31
0.0
  0
LINE
  5
35C
330
2
100
AcDbEntity
  8
0
  6
Continuous
100
AcDbLine
 10
221.9023816627998
 20
153.0287129658
 30
0.0
 11
221.9023816627998
 21
149.0287141727999
 31
0.0
  0
LINE
  5
35D
330
2
100
AcDbEntity
  8
0
  6
Continuous
100
AcDbLine
 10
221.9023816627998
 20
149.0287141727999
 30
0.0
 11
221.9023816627998
 21
146.5337140339
 31
0.0
  0
LINE
  5
35E
330
2
100
AcDbEntity
  8
0
  6
Continuous
100
AcDbLine
 10
221.9023816627998
 20
146.5337140339
 30
0.0
 11
221.9023816627998
 21
146.5257121104
 31
0.0
  0
LINE
  5
35F
330
2
100
AcDbEntity
  8
0
  6
Continuous
100
AcDbLine
 10
221.9023816627998
 20
153.0327139276
 30
0.0
 11
221.9023816627998
 21
153.0287129658
 31
0.0
  0
LINE
  5
360
330
2
100
AcDbEntity
  8
0
  6
Continuous
100
AcDbLine
 10
232.8523807568999
 20
146.5257121104
 30
0.0
 11
232.8523807568999
 21
144.5300983119
 31
0.0
  0
LINE
  5
361
330
2
100
AcDbEntity
  8
0
  6
Continuous
100
AcDbLine
 10
232.8523807568999
 20
144.5300983119
 30
0.0
 11
232.8523807568999
 21
144.5287125038998
 31
0.0
  0
LINE
  5
362
330
2
100
AcDbEntity
  8
0
  6
Continuous
100
AcDbLine
 10
232.8523807568999
 20
151.5287136513
 30
0.0
 11
232.8523807568999
 21
149.0287141727999
 31
0.0
  0
LINE
  5
363
330
2
100
AcDbEntity
  8
0
  6
Continuous
100
AcDbLine
 10
232.8523807568999
 20
146.5337140339
 30
0.0
 11
232.8523807568999
 21
146.5257121104
 31
0.0
  0
LINE
  5
364
330
2
100
AcDbEntity
  8
0
  6
Continuous
100
AcDbLine
 10
232.8523807568999
 20
149.0287141727999
 30
0.0
 11
232.8523807568999
 21
146.5337140339
 31
0.0
  0
LINE
  5
365
330
2
100
AcDbEntity
  8
0
  6
Continuous
100
AcDbLine
 10
231.9523804231
 20
153.7787126231
 30
0.0
 11
233.1523783845999
 21
153.7787126231
 31
0.0
  0
LINE
  5
366
330
2
100
AcDbEntity
  8
0
  6
Continuous
100
AcDbLine
 10
234.8523773593999
 20
151.5287136513
 30
0.0
 11
232.8523807568999
 21
151.5287136513
 31
0.0
  0
LINE
  5
367
330
2
100
AcDbEntity
  8
0
  6
Continuous
100
AcDbLine
 10
232.8523807568999
 20
153.7787126231
 30
0.0
 11
232.8523807568999
 21
151.5287136513
 31
0.0
  0
LINE
  5
368
330
2
100
AcDbEntity
  8
0
  6
Continuous
100
AcDbLine
 10
234.2523821039
 20
153.6287138091998
 30
0.0
 11
234.8523773593999
 21
153.6287138091998
 31
0.0
  0
LINE
  5
369
330
2
100
AcDbEntity
  8
0
  6
Continuous
100
AcDbLine
 10
233.1523783845999
 20
153.5787129628
 30
0.0
 11
233.7523810906
 21
153.5787129628
 31
0.0
  0
LINE
  5
36A
330
2
100
AcDbEntity
  8
0
  6
Continuous
100
AcDbLine
 10
233.7523810906
 20
153.5287139790999
 30
0.0
 11
234.2523821039
 21
153.5287139790999
 31
0.0
  0
LINE
  5
36B
330
2
100
AcDbEntity
  8
0
  6
Continuous
100
AcDbLine
 10
231.4523794098
 20
156.0263627994
 30
0.0
 11
221.9023816627998
 21
156.0263627994
 31
0.0
  0
LINE
  5
36C
330
2
100
AcDbEntity
  8
0
  6
Continuous
100
AcDbLine
 10
229.8523821277999
 20
158.6287136974
 30
0.0
 11
229.2523794216999
 21
158.6287136974
 31
0.0
  0
LINE
  5
36D
330
2
100
AcDbEntity
  8
0
  6
Continuous
100
AcDbLine
 10
229.2523794216999
 20
159.2287136095
 30
0.0
 11
234.8623760386
 21
159.2287136095
 31
0.0
  0
LINE
  5
36E
330
2
100
AcDbEntity
  8
0
  6
Continuous
100
AcDbLine
 10
220.8623774691
 20
158.6287136974
 30
0.0
 11
229.2523794216999
 21
158.6287136974
 31
0.0
  0
LINE
  5
36F
330
2
100
AcDbEntity
  8
0
  6
Continuous
100
AcDbLine
 10
221.9023816627998
 20
158.6287136974
 30
0.0
 11
221.9023816627998
 21
156.03144037
 31
0.0
  0
LINE
  5
370
330
2
100
AcDbEntity
  8
0
  6
Continuous
100
AcDbLine
 10
221.9023816627998
 20
156.03144037
 30
0.0
 11
221.9023816627998
 21
156.0263627994
 31
0.0
  0
ARC
  5
371
330
2
100
AcDbEntity
  8
0
  6
Continuous
100
AcDbCircle
 10
220.8523791356
 20
159.2287133680999
 30
0.0
 40
0.6000000000000229
100
AcDbArc
 50
180.0
 51
270.0
  0
LINE
  5
372
330
2
100
AcDbEntity
  8
0
  6
Continuous
100
AcDbLine
 10
220.8623774691
 20
158.6287136974
 30
0.0
 11
220.8523787899
 21
158.6287136974
 31
0.0
  0
LINE
  5
373
330
2
100
AcDbEntity
  8
0
  6
Continuous
100
AcDbLine
 10
220.8523787899
 20
159.2287136095
 30
0.0
 11
220.8523787899
 21
158.6287136974
 31
0.0
  0
LINE
  5
374
330
2
100
AcDbEntity
  8
0
  6
Continuous
100
AcDbLine
 10
220.2523760839
 20
159.2287136095
 30
0.0
 11
220.2523760839
 21
159.23871322
 31
0.0
  0
LINE
  5
375
330
2
100
AcDbEntity
  8
0
  6
Continuous
100
AcDbLine
 10
220.8523787899
 20
159.2287136095
 30
0.0
 11
220.2523760839
 21
159.2287136095
 31
0.0
  0
LINE
  5
376
330
2
100
AcDbEntity
  8
0
  6
Continuous
100
AcDbLine
 10
229.2523794216999
 20
158.6287136974
 30
0.0
 11
229.2523794216999
 21
159.23871322
 31
0.0
  0
LINE
  5
377
330
2
100
AcDbEntity
  8
0
  6
Continuous
100
AcDbLine
 10
232.8523807568999
 20
158.6287136974
 30
0.0
 11
232.8523807568999
 21
158.2787133607
 31
0.0
  0
LINE
  5
378
330
2
100
AcDbEntity
  8
0
  6
Continuous
100
AcDbLine
 10
234.8523773593999
 20
155.5287124442999
 30
0.0
 11
234.8523773593999
 21
158.6287136974
 31
0.0
  0
LINE
  5
379
330
2
100
AcDbEntity
  8
0
  6
Continuous
100
AcDbLine
 10
234.2523821039
 20
158.6287136974
 30
0.0
 11
234.2523821039
 21
156.2287131177999
 31
0.0
  0
LINE
  5
37A
330
2
100
AcDbEntity
  8
0
  6
Continuous
100
AcDbLine
 10
233.1523783845999
 20
158.4787130208999
 30
0.0
 11
233.1523783845999
 21
156.3287129479
 31
0.0
  0
LINE
  5
37B
330
2
100
AcDbEntity
  8
0
  6
Continuous
100
AcDbLine
 10
233.7523810906
 20
158.528712936
 30
0.0
 11
233.7523810906
 21
156.0287134574999
 31
0.0
  0
ARC
  5
37C
330
2
100
AcDbEntity
  8
0
  6
Continuous
100
AcDbCircle
 10
231.9523791356
 20
157.7787133681
 30
0.0
 40
0.5
100
AcDbArc
 50
90.0
 51
180.0
  0
LINE
  5
37D
330
2
100
AcDbEntity
  8
0
  6
Continuous
100
AcDbLine
 10
233.1523783845999
 20
158.2787133607
 30
0.0
 11
231.9523804231
 21
158.2787133607
 31
0.0
  0
LINE
  5
37E
330
2
100
AcDbEntity
  8
0
  6
Continuous
100
AcDbLine
 10
231.4523794098
 20
154.2787136363998
 30
0.0
 11
231.4523794098
 21
157.7787132786999
 31
0.0
  0
LINE
  5
37F
330
2
100
AcDbEntity
  8
0
  6
Continuous
100
AcDbLine
 10
234.2523821039
 20
156.2287131177999
 30
0.0
 11
234.2523821039
 21
154.8537140566
 31
0.0
  0
LINE
  5
380
330
2
100
AcDbEntity
  8
0
  6
Continuous
100
AcDbLine
 10
233.1523783845999
 20
156.0287134574999
 30
0.0
 11
233.1523783845999
 21
156.3287129479
 31
0.0
  0
LINE
  5
381
330
2
100
AcDbEntity
  8
0
  6
Continuous
100
AcDbLine
 10
233.7523810906
 20
156.0287134574999
 30
0.0
 11
233.1523783845999
 21
156.0287134574999
 31
0.0
  0
LINE
  5
382
330
2
100
AcDbEntity
  8
0
  6
Continuous
100
AcDbLine
 10
233.7523810906
 20
156.3287129479
 30
0.0
 11
233.1523783845999
 21
156.3287129479
 31
0.0
  0
LINE
  5
383
330
2
100
AcDbEntity
  8
0
  6
Continuous
100
AcDbLine
 10
229.8523821277999
 20
158.6287136974
 30
0.0
 11
234.2523821039
 21
158.6287136974
 31
0.0
  0
LINE
  5
384
330
2
100
AcDbEntity
  8
0
  6
Continuous
100
AcDbLine
 10
229.8523821277999
 20
159.2287136095
 30
0.0
 11
229.8523821277999
 21
158.6287136974
 31
0.0
  0
LINE
  5
385
330
2
100
AcDbEntity
  8
0
  6
Continuous
100
AcDbLine
 10
232.8523807568999
 20
159.23871322
 30
0.0
 11
232.8523807568999
 21
159.2287136095
 31
0.0
  0
LINE
  5
386
330
2
100
AcDbEntity
  8
0
  6
Continuous
100
AcDbLine
 10
234.8623760386
 20
158.6287136974
 30
0.0
 11
234.2523821039
 21
158.6287136974
 31
0.0
  0
LINE
  5
387
330
2
100
AcDbEntity
  8
0
  6
Continuous
100
AcDbLine
 10
234.8623760386
 20
159.2287136095
 30
0.0
 11
234.8623760386
 21
158.6287136974
 31
0.0
  0
LINE
  5
388
330
2
100
AcDbEntity
  8
0
  6
Continuous
100
AcDbLine
 10
233.7523810906
 20
158.4787130208999
 30
0.0
 11
233.1523783845999
 21
158.4787130208999
 31
0.0
  0
LINE
  5
389
330
2
100
AcDbEntity
  8
0
  6
Continuous
100
AcDbLine
 10
234.2523821039
 20
158.528712936
 30
0.0
 11
233.7523810906
 21
158.528712936
 31
0.0
  0
LINE
  5
38A
330
2
100
AcDbEntity
  8
0
  6
Continuous
100
AcDbLine
 10
221.9023816627998
 20
200.2787137258
 30
0.0
 11
167.502379079
 21
200.2787137258
 31
0.0
  0
LINE
  5
38B
330
2
100
AcDbEntity
  8
0
  6
Continuous
100
AcDbLine
 10
221.9023816627998
 20
198.5317146258999
 30
0.0
 11
167.502379079
 21
198.5317146258999
 31
0.0
  0
LINE
  5
38C
330
2
100
AcDbEntity
  8
0
  6
Continuous
100
AcDbLine
 10
221.9023816627998
 20
192.0287137704999
 30
0.0
 11
167.502379079
 21
192.0287137704999
 31
0.0
  0
LINE
  5
38D
330
2
100
AcDbEntity
  8
0
  6
Continuous
100
AcDbLine
 10
221.9023816627998
 20
189.4429823237
 30
0.0
 11
167.502379079
 21
189.4429823237
 31
0.0
  0
SPLINE
  5
38E
330
2
100
AcDbEntity
  8
0
  6
Continuous
100
AcDbSpline
210
0.0
220
0.0
230
1.0
 70
     8
 71
     3
 72
    16
 73
    12
 74
     0
 42
0.0000000001
 43
0.0000000001
 40
0.0
 40
0.0
 40
0.0
 40
0.0
 40
0.2499999999999999
 40
0.2499999999999999
 40
0.5
 40
0.5
 40
0.625
 40
0.625
 40
0.75
 40
0.75
 40
1.0
 40
1.0
 40
1.0
 40
1.0
 10
151.4814851692455
 20
174.3147704780825
 30
0.0
 10
151.6066864985754
 20
174.0638776982673
 30
0.0
 10
151.7119283329388
 20
173.7880807340691
 30
0.0
 10
151.8618134889706
 20
173.1779828427584
 30
0.0
 10
151.9021594071134
 20
172.8601158767979
 30
0.0
 10
151.9024876703886
 20
172.3670063158423
 30
0.0
 10
151.8925077601995
 20
172.2052939675275
 30
0.0
 10
151.8538010428549
 20
171.8868477588339
 30
0.0
 10
151.824679087925
 20
171.7287025239553
 30
0.0
 10
151.7130368570469
 20
171.2730443046611
 30
0.0
 10
151.606802115285
 20
170.9937807240189
 30
0.0
 10
151.4814851692455
 20
170.7426562581841
 30
0.0
  0
LINE
  5
38F
330
2
100
AcDbEntity
  8
0
  6
Continuous
100
AcDbLine
 10
162.0523790238999
 20
200.5287142324
 30
0.0
 11
157.5523791594
 21
200.5287142324
 31
0.0
  0
ARC
  5
390
330
2
100
AcDbEntity
  8
0
  6
Continuous
100
AcDbCircle
 10
155.8523791355999
 20
191.2787133681
 30
0.0
 40
0.3000000000000114
100
AcDbArc
 50
90.0
 51
180.0
  0
LINE
  5
391
330
2
100
AcDbEntity
  8
0
  6
Continuous
100
AcDbLine
 10
157.0523791356
 20
191.5787136035998
 30
0.0
 11
155.8523790785999
 21
191.5787136035998
 31
0.0
  0
LINE
  5
392
330
2
100
AcDbEntity
  8
0
  6
Continuous
100
AcDbLine
 10
157.0523791356
 20
196.0287125635
 30
0.0
 11
157.0523791356
 21
200.0287132191
 31
0.0
  0
LINE
  5
393
330
2
100
AcDbEntity
  8
0
  6
Continuous
100
AcDbLine
 10
157.5523791594
 20
200.5287142324
 30
0.0
 11
157.5523791594
 21
196.0287125635
 31
0.0
  0
LINE
  5
394
330
2
100
AcDbEntity
  8
0
  6
Continuous
100
AcDbLine
 10
157.0523791356
 20
200.0287132191
 30
0.0
 11
157.5523791594
 21
200.5287142324
 31
0.0
  0
LINE
  5
395
330
2
100
AcDbEntity
  8
0
  6
Continuous
100
AcDbLine
 10
167.502379079
 20
196.0287125635
 30
0.0
 11
167.502379079
 21
192.0287137704999
 31
0.0
  0
LINE
  5
396
330
2
100
AcDbEntity
  8
0
  6
Continuous
100
AcDbLine
 10
162.0523790238999
 20
196.0287125635
 30
0.0
 11
162.0523790238999
 21
189.0259863661999
 31
0.0
  0
LINE
  5
397
330
2
100
AcDbEntity
  8
0
  6
Continuous
100
AcDbLine
 10
167.502379079
 20
192.0287137704999
 30
0.0
 11
162.0523790238999
 21
192.0287137704999
 31
0.0
  0
LINE
  5
398
330
2
100
AcDbEntity
  8
0
  6
Continuous
100
AcDbLine
 10
167.502379079
 20
189.0259863661999
 30
0.0
 11
162.0523790238999
 21
189.0259863661999
 31
0.0
  0
LINE
  5
399
330
2
100
AcDbEntity
  8
0
  6
Continuous
100
AcDbLine
 10
167.502379079
 20
192.0247128087
 30
0.0
 11
167.502379079
 21
189.4481884169
 31
0.0
  0
LINE
  5
39A
330
2
100
AcDbEntity
  8
0
  6
Continuous
100
AcDbLine
 10
167.502379079
 20
192.0247128087
 30
0.0
 11
167.502379079
 21
189.0310639368999
 31
0.0
  0
LINE
  5
39B
330
2
100
AcDbEntity
  8
0
  6
Continuous
100
AcDbLine
 10
167.502379079
 20
189.0310639368999
 30
0.0
 11
167.502379079
 21
189.0259863661999
 31
0.0
  0
LINE
  5
39C
330
2
100
AcDbEntity
  8
0
  6
Continuous
100
AcDbLine
 10
167.502379079
 20
192.0287137704999
 30
0.0
 11
167.502379079
 21
192.0247128087
 31
0.0
  0
LINE
  5
39D
330
2
100
AcDbEntity
  8
0
  6
Continuous
100
AcDbLine
 10
167.502379079
 20
200.5287142324
 30
0.0
 11
162.0523790238999
 21
200.5287142324
 31
0.0
  0
LINE
  5
39E
330
2
100
AcDbEntity
  8
0
  6
Continuous
100
AcDbLine
 10
167.502379079
 20
198.5317146258999
 30
0.0
 11
162.0523790238999
 21
198.5317146258999
 31
0.0
  0
LINE
  5
39F
330
2
100
AcDbEntity
  8
0
  6
Continuous
100
AcDbLine
 10
162.0523790238999
 20
200.5287142324
 30
0.0
 11
162.0523790238999
 21
196.0287125635
 31
0.0
  0
LINE
  5
3A0
330
2
100
AcDbEntity
  8
0
  6
Continuous
100
AcDbLine
 10
167.502379079
 20
200.2772515493
 30
0.0
 11
167.502379079
 21
198.5317146258999
 31
0.0
  0
LINE
  5
3A1
330
2
100
AcDbEntity
  8
0
  6
Continuous
100
AcDbLine
 10
167.502379079
 20
200.5273284244
 30
0.0
 11
167.502379079
 21
198.5317146258999
 31
0.0
  0
LINE
  5
3A2
330
2
100
AcDbEntity
  8
0
  6
Continuous
100
AcDbLine
 10
167.502379079
 20
198.5317146258999
 30
0.0
 11
167.502379079
 21
198.5237127022999
 31
0.0
  0
LINE
  5
3A3
330
2
100
AcDbEntity
  8
0
  6
Continuous
100
AcDbLine
 10
167.502379079
 20
198.5237127022999
 30
0.0
 11
167.502379079
 21
196.0287125635
 31
0.0
  0
LINE
  5
3A4
330
2
100
AcDbEntity
  8
0
  6
Continuous
100
AcDbLine
 10
167.502379079
 20
200.5287142324
 30
0.0
 11
167.502379079
 21
200.5273284244
 31
0.0
  0
LINE
  5
3A5
330
2
100
AcDbEntity
  8
0
  6
Continuous
100
AcDbLine
 10
221.9023816627998
 20
189.0259863661999
 30
0.0
 11
221.9023816627998
 21
186.4287130387998
 31
0.0
  0
LINE
  5
3A6
330
2
100
AcDbEntity
  8
0
  6
Continuous
100
AcDbLine
 10
234.8523773593999
 20
186.4287130387998
 30
0.0
 11
234.8523773593999
 21
189.528714292
 31
0.0
  0
LINE
  5
3A7
330
2
100
AcDbEntity
  8
0
  6
Continuous
100
AcDbLine
 10
234.2523821039
 20
186.4287130387998
 30
0.0
 11
234.2523821039
 21
188.8287136185
 31
0.0
  0
LINE
  5
3A8
330
2
100
AcDbEntity
  8
0
  6
Continuous
100
AcDbLine
 10
233.1523783845999
 20
189.0287132786999
 30
0.0
 11
233.1523783845999
 21
186.5787137152999
 31
0.0
  0
LINE
  5
3A9
330
2
100
AcDbEntity
  8
0
  6
Continuous
100
AcDbLine
 10
233.7523810906
 20
189.0287132786999
 30
0.0
 11
233.7523810906
 21
186.5287138002999
 31
0.0
  0
ARC
  5
3AA
330
2
100
AcDbEntity
  8
0
  6
Continuous
100
AcDbCircle
 10
231.9523791356
 20
187.2787133681
 30
0.0
 40
0.5
100
AcDbArc
 50
180.0
 51
270.0
  0
LINE
  5
3AB
330
2
100
AcDbEntity
  8
0
  6
Continuous
100
AcDbLine
 10
229.2523794216999
 20
185.8287131266999
 30
0.0
 11
229.8523821277999
 21
185.8287131266999
 31
0.0
  0
LINE
  5
3AC
330
2
100
AcDbEntity
  8
0
  6
Continuous
100
AcDbLine
 10
229.2523794216999
 20
186.4287130387998
 30
0.0
 11
229.8523821277999
 21
186.4287130387998
 31
0.0
  0
LINE
  5
3AD
330
2
100
AcDbEntity
  8
0
  6
Continuous
100
AcDbLine
 10
229.2523794216999
 20
186.4287130387998
 30
0.0
 11
220.8623774691
 21
186.4287130387998
 31
0.0
  0
ARC
  5
3AE
330
2
100
AcDbEntity
  8
0
  6
Continuous
100
AcDbCircle
 10
220.8523791356
 20
185.8287133681
 30
0.0
 40
0.5999999999999944
100
AcDbArc
 50
90.0
 51
180.0
  0
LINE
  5
3AF
330
2
100
AcDbEntity
  8
0
  6
Continuous
100
AcDbLine
 10
220.8523787899
 20
186.4287130387998
 30
0.0
 11
220.8623774691
 21
186.4287130387998
 31
0.0
  0
LINE
  5
3B0
330
2
100
AcDbEntity
  8
0
  6
Continuous
100
AcDbLine
 10
220.8523787899
 20
185.8287131266999
 30
0.0
 11
220.8523787899
 21
186.4287130387998
 31
0.0
  0
LINE
  5
3B1
330
2
100
AcDbEntity
  8
0
  6
Continuous
100
AcDbLine
 10
220.2523760839
 20
185.8187135163
 30
0.0
 11
220.2523760839
 21
185.8287131266999
 31
0.0
  0
LINE
  5
3B2
330
2
100
AcDbEntity
  8
0
  6
Continuous
100
AcDbLine
 10
220.8523787899
 20
185.8287131266999
 30
0.0
 11
220.2523760839
 21
185.8287131266999
 31
0.0
  0
LINE
  5
3B3
330
2
100
AcDbEntity
  8
0
  6
Continuous
100
AcDbLine
 10
229.2523794216999
 20
185.8287131266999
 30
0.0
 11
229.2523794216999
 21
186.4287130387998
 31
0.0
  0
LINE
  5
3B4
330
2
100
AcDbEntity
  8
0
  6
Continuous
100
AcDbLine
 10
229.8523821277999
 20
185.8287131266999
 30
0.0
 11
234.8623760386
 21
185.8287131266999
 31
0.0
  0
LINE
  5
3B5
330
2
100
AcDbEntity
  8
0
  6
Continuous
100
AcDbLine
 10
229.8523821277999
 20
186.4287130387998
 30
0.0
 11
234.2523821039
 21
186.4287130387998
 31
0.0
  0
LINE
  5
3B6
330
2
100
AcDbEntity
  8
0
  6
Continuous
100
AcDbLine
 10
231.9523804231
 20
186.7787133756
 30
0.0
 11
233.1523783845999
 21
186.7787133756
 31
0.0
  0
LINE
  5
3B7
330
2
100
AcDbEntity
  8
0
  6
Continuous
100
AcDbLine
 10
229.8523821277999
 20
185.8287131266999
 30
0.0
 11
229.8523821277999
 21
186.4287130387998
 31
0.0
  0
LINE
  5
3B8
330
2
100
AcDbEntity
  8
0
  6
Continuous
100
AcDbLine
 10
232.8523807568999
 20
186.7787133756
 30
0.0
 11
232.8523807568999
 21
186.4287130387998
 31
0.0
  0
LINE
  5
3B9
330
2
100
AcDbEntity
  8
0
  6
Continuous
100
AcDbLine
 10
234.8623760386
 20
186.4287130387998
 30
0.0
 11
234.2523821039
 21
186.4287130387998
 31
0.0
  0
LINE
  5
3BA
330
2
100
AcDbEntity
  8
0
  6
Continuous
100
AcDbLine
 10
234.8623760386
 20
185.8287131266999
 30
0.0
 11
234.8623760386
 21
186.4287130387998
 31
0.0
  0
LINE
  5
3BB
330
2
100
AcDbEntity
  8
0
  6
Continuous
100
AcDbLine
 10
233.1523783845999
 20
186.5787137152999
 30
0.0
 11
233.7523810906
 21
186.5787137152999
 31
0.0
  0
LINE
  5
3BC
330
2
100
AcDbEntity
  8
0
  6
Continuous
100
AcDbLine
 10
233.7523810906
 20
186.5287138002999
 30
0.0
 11
234.2523821039
 21
186.5287138002999
 31
0.0
  0
LINE
  5
3BD
330
2
100
AcDbEntity
  8
0
  6
Continuous
100
AcDbLine
 10
231.4523794098
 20
189.0310639368999
 30
0.0
 11
221.9023816627998
 21
189.0310639368999
 31
0.0
  0
LINE
  5
3BE
330
2
100
AcDbEntity
  8
0
  6
Continuous
100
AcDbLine
 10
232.8523807568999
 20
200.5287142324
 30
0.0
 11
221.9023816627998
 21
200.5287142324
 31
0.0
  0
LINE
  5
3BF
330
2
100
AcDbEntity
  8
0
  6
Continuous
100
AcDbLine
 10
232.8523807568999
 20
198.5317146258999
 30
0.0
 11
221.9023816627998
 21
198.5317146258999
 31
0.0
  0
LINE
  5
3C0
330
2
100
AcDbEntity
  8
0
  6
Continuous
100
AcDbLine
 10
232.8523807568999
 20
192.0287137704999
 30
0.0
 11
221.9023816627998
 21
192.0287137704999
 31
0.0
  0
LINE
  5
3C1
330
2
100
AcDbEntity
  8
0
  6
Continuous
100
AcDbLine
 10
221.9023816627998
 20
196.0287125635
 30
0.0
 11
221.9023816627998
 21
192.0287137704999
 31
0.0
  0
LINE
  5
3C2
330
2
100
AcDbEntity
  8
0
  6
Continuous
100
AcDbLine
 10
221.9023816627998
 20
192.0247128087
 30
0.0
 11
221.9023816627998
 21
189.0310639368999
 31
0.0
  0
LINE
  5
3C3
330
2
100
AcDbEntity
  8
0
  6
Continuous
100
AcDbLine
 10
221.9023816627998
 20
192.0247128087
 30
0.0
 11
221.9023816627998
 21
189.4481884169
 31
0.0
  0
LINE
  5
3C4
330
2
100
AcDbEntity
  8
0
  6
Continuous
100
AcDbLine
 10
221.9023816627998
 20
189.0310639368999
 30
0.0
 11
221.9023816627998
 21
189.0259863661999
 31
0.0
  0
LINE
  5
3C5
330
2
100
AcDbEntity
  8
0
  6
Continuous
100
AcDbLine
 10
221.9023816627998
 20
192.0287137704999
 30
0.0
 11
221.9023816627998
 21
192.0247128087
 31
0.0
  0
LINE
  5
3C6
330
2
100
AcDbEntity
  8
0
  6
Continuous
100
AcDbLine
 10
221.9023816627998
 20
200.5273284244
 30
0.0
 11
221.9023816627998
 21
198.5317146258999
 31
0.0
  0
LINE
  5
3C7
330
2
100
AcDbEntity
  8
0
  6
Continuous
100
AcDbLine
 10
221.9023816627998
 20
200.2772515493
 30
0.0
 11
221.9023816627998
 21
198.5317146258999
 31
0.0
  0
LINE
  5
3C8
330
2
100
AcDbEntity
  8
0
  6
Continuous
100
AcDbLine
 10
221.9023816627998
 20
198.5237127022999
 30
0.0
 11
221.9023816627998
 21
196.0287125635
 31
0.0
  0
LINE
  5
3C9
330
2
100
AcDbEntity
  8
0
  6
Continuous
100
AcDbLine
 10
221.9023816627998
 20
198.5317146258999
 30
0.0
 11
221.9023816627998
 21
198.5237127022999
 31
0.0
  0
LINE
  5
3CA
330
2
100
AcDbEntity
  8
0
  6
Continuous
100
AcDbLine
 10
221.9023816627998
 20
200.5287142324
 30
0.0
 11
221.9023816627998
 21
200.5273284244
 31
0.0
  0
LINE
  5
3CB
330
2
100
AcDbEntity
  8
0
  6
Continuous
100
AcDbLine
 10
232.8523807568999
 20
196.0287125635
 30
0.0
 11
232.8523807568999
 21
193.5287130849999
 31
0.0
  0
LINE
  5
3CC
330
2
100
AcDbEntity
  8
0
  6
Continuous
100
AcDbLine
 10
234.8523773593999
 20
189.528714292
 30
0.0
 11
234.8523773593999
 21
193.5287130849999
 31
0.0
  0
LINE
  5
3CD
330
2
100
AcDbEntity
  8
0
  6
Continuous
100
AcDbLine
 10
233.1523783845999
 20
191.4787137733999
 30
0.0
 11
233.1523783845999
 21
189.3287127691
 31
0.0
  0
LINE
  5
3CE
330
2
100
AcDbEntity
  8
0
  6
Continuous
100
AcDbLine
 10
234.2523821039
 20
191.5287127572
 30
0.0
 11
234.2523821039
 21
190.2037126796998
 31
0.0
  0
LINE
  5
3CF
330
2
100
AcDbEntity
  8
0
  6
Continuous
100
AcDbLine
 10
233.7523810906
 20
191.5287127572
 30
0.0
 11
233.7523810906
 21
189.0287132786999
 31
0.0
  0
ARC
  5
3D0
330
2
100
AcDbEntity
  8
0
  6
Continuous
100
AcDbCircle
 10
231.9523791356
 20
190.7787133680998
 30
0.0
 40
0.5
100
AcDbArc
 50
90.0
 51
180.0
  0
LINE
  5
3D1
330
2
100
AcDbEntity
  8
0
  6
Continuous
100
AcDbLine
 10
231.4523794098
 20
187.2787134574999
 30
0.0
 11
231.4523794098
 21
190.7787130999
 31
0.0
  0
LINE
  5
3D2
330
2
100
AcDbEntity
  8
0
  6
Continuous
100
AcDbLine
 10
234.2523821039
 20
188.8287136185
 30
0.0
 11
234.2523821039
 21
190.2037126796998
 31
0.0
  0
LINE
  5
3D3
330
2
100
AcDbEntity
  8
0
  6
Continuous
100
AcDbLine
 10
233.1523783845999
 20
189.0287132786999
 30
0.0
 11
233.1523783845999
 21
189.3287127691
 31
0.0
  0
LINE
  5
3D4
330
2
100
AcDbEntity
  8
0
  6
Continuous
100
AcDbLine
 10
233.7523810906
 20
189.0287132786999
 30
0.0
 11
233.1523783845999
 21
189.0287132786999
 31
0.0
  0
LINE
  5
3D5
330
2
100
AcDbEntity
  8
0
  6
Continuous
100
AcDbLine
 10
233.7523810906
 20
189.3287127691
 30
0.0
 11
233.1523783845999
 21
189.3287127691
 31
0.0
  0
LINE
  5
3D6
330
2
100
AcDbEntity
  8
0
  6
Continuous
100
AcDbLine
 10
233.1523783845999
 20
191.2787141132
 30
0.0
 11
231.9523804231
 21
191.2787141132
 31
0.0
  0
LINE
  5
3D7
330
2
100
AcDbEntity
  8
0
  6
Continuous
100
AcDbLine
 10
234.8523773593999
 20
193.5287130849999
 30
0.0
 11
232.8523807568999
 21
193.5287130849999
 31
0.0
  0
LINE
  5
3D8
330
2
100
AcDbEntity
  8
0
  6
Continuous
100
AcDbLine
 10
232.8523807568999
 20
193.5287130849999
 30
0.0
 11
232.8523807568999
 21
191.2787141132
 31
0.0
  0
LINE
  5
3D9
330
2
100
AcDbEntity
  8
0
  6
Continuous
100
AcDbLine
 10
234.8523773593999
 20
191.4287129270999
 30
0.0
 11
234.2523821039
 21
191.4287129270999
 31
0.0
  0
LINE
  5
3DA
330
2
100
AcDbEntity
  8
0
  6
Continuous
100
AcDbLine
 10
233.7523810906
 20
191.4787137733999
 30
0.0
 11
233.1523783845999
 21
191.4787137733999
 31
0.0
  0
LINE
  5
3DB
330
2
100
AcDbEntity
  8
0
  6
Continuous
100
AcDbLine
 10
234.2523821039
 20
191.5287127572
 30
0.0
 11
233.7523810906
 21
191.5287127572
 31
0.0
  0
LINE
  5
3DC
330
2
100
AcDbEntity
  8
0
  6
Continuous
100
AcDbLine
 10
232.8523807568999
 20
200.5273284244
 30
0.0
 11
232.8523807568999
 21
198.5317146258999
 31
0.0
  0
LINE
  5
3DD
330
2
100
AcDbEntity
  8
0
  6
Continuous
100
AcDbLine
 10
232.8523807568999
 20
198.5317146258999
 30
0.0
 11
232.8523807568999
 21
198.5237127022999
 31
0.0
  0
LINE
  5
3DE
330
2
100
AcDbEntity
  8
0
  6
Continuous
100
AcDbLine
 10
232.8523807568999
 20
198.5237127022999
 30
0.0
 11
232.8523807568999
 21
196.0287125635
 31
0.0
  0
LINE
  5
3DF
330
2
100
AcDbEntity
  8
0
  6
Continuous
100
AcDbLine
 10
232.8523807568999
 20
200.5287142324
 30
0.0
 11
232.8523807568999
 21
200.5273284244
 31
0.0
  0
LINE
  5
3E0
330
2
100
AcDbEntity
  8
0
  6
Continuous
100
AcDbLine
 10
250.852379982
 20
184.8287129627999
 30
0.0
 11
250.852379982
 21
160.2287137733999
 31
0.0
  0
LINE
  5
3E1
330
2
100
AcDbEntity
  8
0
  6
Continuous
100
AcDbLine
 10
254.7523789449
 20
159.9787132668
 30
0.0
 11
254.7523789449
 21
185.0787134695
 31
0.0
  0
LINE
  5
3E2
330
2
100
AcDbEntity
  8
0
  6
Continuous
100
AcDbLine
 10
255.3523816509
 20
159.3287134396998
 30
0.0
 11
255.3523816509
 21
185.7287132966
 31
0.0
  0
LINE
  5
3E3
330
2
100
AcDbEntity
  8
0
  6
Continuous
100
AcDbLine
 10
256.8523772402
 20
155.5287124442999
 30
0.0
 11
256.8523772402
 21
189.528714292
 31
0.0
  0
LINE
  5
3E4
330
2
100
AcDbEntity
  8
0
  6
Continuous
100
AcDbLine
 10
251.6023777766
 20
159.9787132668
 30
0.0
 11
251.6023777766
 21
185.0787134695
 31
0.0
  0
LINE
  5
3E5
330
2
100
AcDbEntity
  8
0
  6
Continuous
100
AcDbLine
 10
251.052375917
 20
185.0787134695
 30
0.0
 11
251.052375917
 21
159.9787132668
 31
0.0
  0
LINE
  5
3E6
330
2
100
AcDbEntity
  8
0
  6
Continuous
100
AcDbLine
 10
251.5023760839
 20
159.8787134366999
 30
0.0
 11
251.5023760839
 21
185.1787132995999
 31
0.0
  0
LINE
  5
3E7
330
2
100
AcDbEntity
  8
0
  6
Continuous
100
AcDbLine
 10
256.8523772402
 20
119.7388263309
 30
0.0
 11
250.5523823543
 21
119.7388263309
 31
0.0
  0
LINE
  5
3E8
330
2
100
AcDbEntity
  8
0
  6
Continuous
100
AcDbLine
 10
256.8523772402
 20
115.7388256751999
 30
0.0
 11
250.5523823543
 21
115.7388256751999
 31
0.0
  0
LINE
  5
3E9
330
2
100
AcDbEntity
  8
0
  6
Continuous
100
AcDbLine
 10
250.0523813409999
 20
119.7388114296998
 30
0.0
 11
250.0523813409999
 21
115.7388089114
 31
0.0
  0
LINE
  5
3EA
330
2
100
AcDbEntity
  8
0
  6
Continuous
100
AcDbLine
 10
250.5523823543
 20
115.7388256751999
 30
0.0
 11
250.5523823543
 21
119.7388263309
 31
0.0
  0
LINE
  5
3EB
330
2
100
AcDbEntity
  8
0
  6
Continuous
100
AcDbLine
 10
250.0523813409999
 20
115.5317181610999
 30
0.0
 11
250.5523823543
 21
115.5317181610999
 31
0.0
  0
LINE
  5
3EC
330
2
100
AcDbEntity
  8
0
  6
Continuous
100
AcDbLine
 10
250.5523823543
 20
119.7388114296998
 30
0.0
 11
250.0523813409999
 21
119.7388114296998
 31
0.0
  0
LINE
  5
3ED
330
2
100
AcDbEntity
  8
0
  6
Continuous
100
AcDbLine
 10
250.0523813409999
 20
119.2388253176
 30
0.0
 11
250.5523823543
 21
119.2388253176
 31
0.0
  0
LINE
  5
3EE
330
2
100
AcDbEntity
  8
0
  6
Continuous
100
AcDbLine
 10
256.8523772402
 20
115.7388256751999
 30
0.0
 11
256.8523772402
 21
119.7388263309
 31
0.0
  0
LINE
  5
3EF
330
2
100
AcDbEntity
  8
0
  6
Continuous
100
AcDbLine
 10
250.0523813409999
 20
155.5287124442999
 30
0.0
 11
250.0523813409999
 21
151.5287136513
 31
0.0
  0
LINE
  5
3F0
330
2
100
AcDbEntity
  8
0
  6
Continuous
100
AcDbLine
 10
250.5523823543
 20
151.5287136513
 30
0.0
 11
250.5523823543
 21
155.5287124442999
 31
0.0
  0
LINE
  5
3F1
330
2
100
AcDbEntity
  8
0
  6
Continuous
100
AcDbLine
 10
256.8523772402
 20
151.5287136513
 30
0.0
 11
256.8523772402
 21
155.5287124442999
 31
0.0
  0
LINE
  5
3F2
330
2
100
AcDbEntity
  8
0
  6
Continuous
100
AcDbLine
 10
256.8523772402
 20
151.5287136513
 30
0.0
 11
250.5523823543
 21
151.5287136513
 31
0.0
  0
LINE
  5
3F3
330
2
100
AcDbEntity
  8
0
  6
Continuous
100
AcDbLine
 10
250.0523813409999
 20
152.0287128019
 30
0.0
 11
250.5523823543
 21
152.0287128019
 31
0.0
  0
LINE
  5
3F4
330
2
100
AcDbEntity
  8
0
  6
Continuous
100
AcDbLine
 10
252.9273815793998
 20
169.8537132555999
 30
0.0
 11
252.8523765845
 21
169.7787133829999
 31
0.0
  0
LINE
  5
3F5
330
2
100
AcDbEntity
  8
0
  6
Continuous
100
AcDbLine
 10
252.8523765845
 20
169.2787133011
 30
0.0
 11
252.9273815793998
 21
169.2037134285
 31
0.0
  0
LINE
  5
3F6
330
2
100
AcDbEntity
  8
0
  6
Continuous
100
AcDbLine
 10
252.9273815793998
 20
167.8537133935
 30
0.0
 11
252.8523765845
 21
167.7787135208999
 31
0.0
  0
LINE
  5
3F7
330
2
100
AcDbEntity
  8
0
  6
Continuous
100
AcDbLine
 10
252.8523765845
 20
167.2787134388999
 30
0.0
 11
252.9273815793998
 21
167.2037135662999
 31
0.0
  0
LINE
  5
3F8
330
2
100
AcDbEntity
  8
0
  6
Continuous
100
AcDbLine
 10
252.9273815793998
 20
165.8537135313
 30
0.0
 11
252.8523765845
 21
165.7787131929999
 31
0.0
  0
LINE
  5
3F9
330
2
100
AcDbEntity
  8
0
  6
Continuous
100
AcDbLine
 10
252.8523765845
 20
165.2787135767
 30
0.0
 11
252.9273815793998
 21
165.2037132385
 31
0.0
  0
LINE
  5
3FA
330
2
100
AcDbEntity
  8
0
  6
Continuous
100
AcDbLine
 10
252.9273815793998
 20
163.8537136691
 30
0.0
 11
252.8523765845
 21
163.7787133308999
 31
0.0
  0
LINE
  5
3FB
330
2
100
AcDbEntity
  8
0
  6
Continuous
100
AcDbLine
 10
252.8523765845
 20
163.2787132488997
 30
0.0
 11
252.9273815793998
 21
163.2037129107
 31
0.0
  0
LINE
  5
3FC
330
2
100
AcDbEntity
  8
0
  6
Continuous
100
AcDbLine
 10
252.9273815793998
 20
161.8537133412999
 30
0.0
 11
252.8523765845
 21
161.7787130031
 31
0.0
  0
LINE
  5
3FD
330
2
100
AcDbEntity
  8
0
  6
Continuous
100
AcDbLine
 10
252.8523765845
 20
161.2787129211
 30
0.0
 11
252.9273815793998
 21
161.2037135141999
 31
0.0
  0
LINE
  5
3FE
330
2
100
AcDbEntity
  8
0
  6
Continuous
100
AcDbLine
 10
252.277378027
 20
161.8537133412999
 30
0.0
 11
252.9273815793998
 21
161.8537133412999
 31
0.0
  0
LINE
  5
3FF
330
2
100
AcDbEntity
  8
0
  6
Continuous
100
AcDbLine
 10
252.9273815793998
 20
161.2037135141999
 30
0.0
 11
252.277378027
 21
161.2037135141999
 31
0.0
  0
LINE
  5
400
330
2
100
AcDbEntity
  8
0
  6
Continuous
100
AcDbLine
 10
252.277378027
 20
163.8537136691
 30
0.0
 11
252.9273815793998
 21
163.8537136691
 31
0.0
  0
LINE
  5
401
330
2
100
AcDbEntity
  8
0
  6
Continuous
100
AcDbLine
 10
252.9273815793998
 20
163.2037129107
 30
0.0
 11
252.277378027
 21
163.2037129107
 31
0.0
  0
LINE
  5
402
330
2
100
AcDbEntity
  8
0
  6
Continuous
100
AcDbLine
 10
252.277378027
 20
165.8537135313
 30
0.0
 11
252.9273815793998
 21
165.8537135313
 31
0.0
  0
LINE
  5
403
330
2
100
AcDbEntity
  8
0
  6
Continuous
100
AcDbLine
 10
252.9273815793998
 20
165.2037132385
 30
0.0
 11
252.277378027
 21
165.2037132385
 31
0.0
  0
LINE
  5
404
330
2
100
AcDbEntity
  8
0
  6
Continuous
100
AcDbLine
 10
252.277378027
 20
167.8537133935
 30
0.0
 11
252.9273815793998
 21
167.8537133935
 31
0.0
  0
LINE
  5
405
330
2
100
AcDbEntity
  8
0
  6
Continuous
100
AcDbLine
 10
252.9273815793998
 20
167.2037135662999
 30
0.0
 11
252.277378027
 21
167.2037135662999
 31
0.0
  0
LINE
  5
406
330
2
100
AcDbEntity
  8
0
  6
Continuous
100
AcDbLine
 10
252.277378027
 20
169.8537132555999
 30
0.0
 11
252.9273815793998
 21
169.8537132555999
 31
0.0
  0
LINE
  5
407
330
2
100
AcDbEntity
  8
0
  6
Continuous
100
AcDbLine
 10
252.9273815793998
 20
169.2037134285
 30
0.0
 11
252.277378027
 21
169.2037134285
 31
0.0
  0
LINE
  5
408
330
2
100
AcDbEntity
  8
0
  6
Continuous
100
AcDbLine
 10
255.3523816509
 20
159.3287134396998
 30
0.0
 11
250.5523823543
 21
159.3287134396998
 31
0.0
  0
LINE
  5
409
330
2
100
AcDbEntity
  8
0
  6
Continuous
100
AcDbLine
 10
256.8523772402
 20
155.5287124442999
 30
0.0
 11
250.5523823543
 21
155.5287124442999
 31
0.0
  0
LINE
  5
40A
330
2
100
AcDbEntity
  8
0
  6
Continuous
100
AcDbLine
 10
253.362376277
 20
160.3787135185999
 30
0.0
 11
252.3223795338
 21
160.3787135185999
 31
0.0
  0
LINE
  5
40B
330
2
100
AcDbEntity
  8
0
  6
Continuous
100
AcDbLine
 10
250.5523823543
 20
159.5287130998999
 30
0.0
 11
254.7523789449
 21
159.5287130998999
 31
0.0
  0
LINE
  5
40C
330
2
100
AcDbEntity
  8
0
  6
Continuous
100
AcDbLine
 10
253.2623820347999
 20
160.2787136885
 30
0.0
 11
252.4223812265
 21
160.2787136885
 31
0.0
  0
LINE
  5
40D
330
2
100
AcDbEntity
  8
0
  6
Continuous
100
AcDbLine
 10
250.0523813409999
 20
160.2287137733999
 30
0.0
 11
250.0523813409999
 21
155.5287124442999
 31
0.0
  0
LINE
  5
40E
330
2
100
AcDbEntity
  8
0
  6
Continuous
100
AcDbLine
 10
250.5523823543
 20
155.5287124442999
 30
0.0
 11
250.5523823543
 21
159.3287134396998
 31
0.0
  0
LINE
  5
40F
330
2
100
AcDbEntity
  8
0
  6
Continuous
100
AcDbLine
 10
250.0523813409999
 20
155.7358199584
 30
0.0
 11
250.5523823543
 21
155.7358199584
 31
0.0
  0
LINE
  5
410
330
2
100
AcDbEntity
  8
0
  6
Continuous
100
AcDbLine
 10
250.5523823543
 20
159.5287130998999
 30
0.0
 11
250.5523823543
 21
159.3287134396998
 31
0.0
  0
LINE
  5
411
330
2
100
AcDbEntity
  8
0
  6
Continuous
100
AcDbLine
 10
250.852379982
 20
160.2287137733999
 30
0.0
 11
250.0523813409999
 21
160.2287137733999
 31
0.0
  0
LINE
  5
412
330
2
100
AcDbEntity
  8
0
  6
Continuous
100
AcDbLine
 10
252.3523755713
 20
161.2787129211
 30
0.0
 11
252.277378027
 21
161.2037135141999
 31
0.0
  0
LINE
  5
413
330
2
100
AcDbEntity
  8
0
  6
Continuous
100
AcDbLine
 10
252.3523755713
 20
161.7787130031
 30
0.0
 11
252.277378027
 21
161.8537133412999
 31
0.0
  0
LINE
  5
414
330
2
100
AcDbEntity
  8
0
  6
Continuous
100
AcDbLine
 10
252.277378027
 20
161.2037135141999
 30
0.0
 11
252.277378027
 21
161.8537133412999
 31
0.0
  0
LINE
  5
415
330
2
100
AcDbEntity
  8
0
  6
Continuous
100
AcDbLine
 10
250.5523823543
 20
160.2287137733999
 30
0.0
 11
250.5523823543
 21
160.1415037962
 31
0.0
  0
LINE
  5
416
330
2
100
AcDbEntity
  8
0
  6
Continuous
100
AcDbLine
 10
252.8523765845
 20
161.2787129211
 30
0.0
 11
252.8523765845
 21
161.7787130031
 31
0.0
  0
LINE
  5
417
330
2
100
AcDbEntity
  8
0
  6
Continuous
100
AcDbLine
 10
252.8523765845
 20
161.2787129211
 30
0.0
 11
252.3523755713
 21
161.2787129211
 31
0.0
  0
LINE
  5
418
330
2
100
AcDbEntity
  8
0
  6
Continuous
100
AcDbLine
 10
252.3523755713
 20
161.7787130031
 30
0.0
 11
252.3523755713
 21
161.2787129211
 31
0.0
  0
LINE
  5
419
330
2
100
AcDbEntity
  8
0
  6
Continuous
100
AcDbLine
 10
252.8523765845
 20
161.7787130031
 30
0.0
 11
252.3523755713
 21
161.7787130031
 31
0.0
  0
LINE
  5
41A
330
2
100
AcDbEntity
  8
0
  6
Continuous
100
AcDbLine
 10
250.0523813409999
 20
159.3287134396998
 30
0.0
 11
250.5523823543
 21
159.3287134396998
 31
0.0
  0
LINE
  5
41B
330
2
100
AcDbEntity
  8
0
  6
Continuous
100
AcDbLine
 10
250.5523823543
 20
159.9787132668
 30
0.0
 11
250.5523823543
 21
160.1415037962
 31
0.0
  0
LINE
  5
41C
330
2
100
AcDbEntity
  8
0
  6
Continuous
100
AcDbLine
 10
252.3223795338
 20
160.3787135185999
 30
0.0
 11
252.4223812265
 21
160.2787136885
 31
0.0
  0
LINE
  5
41D
330
2
100
AcDbEntity
  8
0
  6
Continuous
100
AcDbLine
 10
251.6023777766
 20
159.9787132668
 30
0.0
 11
252.4823807520998
 21
159.9787132668
 31
0.0
  0
LINE
  5
41E
330
2
100
AcDbEntity
  8
0
  6
Continuous
100
AcDbLine
 10
251.5023760839
 20
159.8787134366999
 30
0.0
 11
251.6023777766
 21
159.9787132668
 31
0.0
  0
LINE
  5
41F
330
2
100
AcDbEntity
  8
0
  6
Continuous
100
AcDbLine
 10
251.052375917
 20
159.9787132668
 30
0.0
 11
250.5523823543
 21
159.9787132668
 31
0.0
  0
LINE
  5
420
330
2
100
AcDbEntity
  8
0
  6
Continuous
100
AcDbLine
 10
250.5523823543
 20
159.9787132668
 30
0.0
 11
250.5523823543
 21
159.5287130998999
 31
0.0
  0
LINE
  5
421
330
2
100
AcDbEntity
  8
0
  6
Continuous
100
AcDbLine
 10
252.4223812265
 20
160.2787136885
 30
0.0
 11
252.4823807520998
 21
160.2187132315999
 31
0.0
  0
LINE
  5
422
330
2
100
AcDbEntity
  8
0
  6
Continuous
100
AcDbLine
 10
252.4823807520998
 20
160.2187132315999
 30
0.0
 11
252.4823807520998
 21
159.8787134366999
 31
0.0
  0
LINE
  5
423
330
2
100
AcDbEntity
  8
0
  6
Continuous
100
AcDbLine
 10
252.4823807520998
 20
159.8787134366999
 30
0.0
 11
251.5023760839
 21
159.8787134366999
 31
0.0
  0
LINE
  5
424
330
2
100
AcDbEntity
  8
0
  6
Continuous
100
AcDbLine
 10
252.3523755713
 20
165.7787131929999
 30
0.0
 11
252.277378027
 21
165.8537135313
 31
0.0
  0
LINE
  5
425
330
2
100
AcDbEntity
  8
0
  6
Continuous
100
AcDbLine
 10
252.3523755713
 20
165.2787135767
 30
0.0
 11
252.277378027
 21
165.2037132385
 31
0.0
  0
LINE
  5
426
330
2
100
AcDbEntity
  8
0
  6
Continuous
100
AcDbLine
 10
252.3523755713
 20
163.2787132488997
 30
0.0
 11
252.277378027
 21
163.2037129107
 31
0.0
  0
LINE
  5
427
330
2
100
AcDbEntity
  8
0
  6
Continuous
100
AcDbLine
 10
252.3523755713
 20
163.7787133308999
 30
0.0
 11
252.277378027
 21
163.8537136691
 31
0.0
  0
LINE
  5
428
330
2
100
AcDbEntity
  8
0
  6
Continuous
100
AcDbLine
 10
252.277378027
 20
163.2037129107
 30
0.0
 11
252.277378027
 21
163.8537136691
 31
0.0
  0
LINE
  5
429
330
2
100
AcDbEntity
  8
0
  6
Continuous
100
AcDbLine
 10
252.277378027
 20
165.2037132385
 30
0.0
 11
252.277378027
 21
165.8537135313
 31
0.0
  0
LINE
  5
42A
330
2
100
AcDbEntity
  8
0
  6
Continuous
100
AcDbLine
 10
252.3523755713
 20
165.7787131929999
 30
0.0
 11
252.3523755713
 21
165.2787135767
 31
0.0
  0
LINE
  5
42B
330
2
100
AcDbEntity
  8
0
  6
Continuous
100
AcDbLine
 10
252.8523765845
 20
165.2787135767
 30
0.0
 11
252.8523765845
 21
165.7787131929999
 31
0.0
  0
LINE
  5
42C
330
2
100
AcDbEntity
  8
0
  6
Continuous
100
AcDbLine
 10
252.8523765845
 20
165.7787131929999
 30
0.0
 11
252.3523755713
 21
165.7787131929999
 31
0.0
  0
LINE
  5
42D
330
2
100
AcDbEntity
  8
0
  6
Continuous
100
AcDbLine
 10
252.8523765845
 20
165.2787135767
 30
0.0
 11
252.3523755713
 21
165.2787135767
 31
0.0
  0
LINE
  5
42E
330
2
100
AcDbEntity
  8
0
  6
Continuous
100
AcDbLine
 10
252.8523765845
 20
163.2787132488997
 30
0.0
 11
252.3523755713
 21
163.2787132488997
 31
0.0
  0
LINE
  5
42F
330
2
100
AcDbEntity
  8
0
  6
Continuous
100
AcDbLine
 10
252.3523755713
 20
163.7787133308999
 30
0.0
 11
252.3523755713
 21
163.2787132488997
 31
0.0
  0
LINE
  5
430
330
2
100
AcDbEntity
  8
0
  6
Continuous
100
AcDbLine
 10
252.8523765845
 20
163.2787132488997
 30
0.0
 11
252.8523765845
 21
163.7787133308999
 31
0.0
  0
LINE
  5
431
330
2
100
AcDbEntity
  8
0
  6
Continuous
100
AcDbLine
 10
252.8523765845
 20
163.7787133308999
 30
0.0
 11
252.3523755713
 21
163.7787133308999
 31
0.0
  0
LINE
  5
432
330
2
100
AcDbEntity
  8
0
  6
Continuous
100
AcDbLine
 10
252.3523755713
 20
169.2787133011
 30
0.0
 11
252.277378027
 21
169.2037134285
 31
0.0
  0
LINE
  5
433
330
2
100
AcDbEntity
  8
0
  6
Continuous
100
AcDbLine
 10
252.3523755713
 20
169.7787133829999
 30
0.0
 11
252.277378027
 21
169.8537132555999
 31
0.0
  0
LINE
  5
434
330
2
100
AcDbEntity
  8
0
  6
Continuous
100
AcDbLine
 10
252.3523755713
 20
167.2787134388999
 30
0.0
 11
252.277378027
 21
167.2037135662999
 31
0.0
  0
LINE
  5
435
330
2
100
AcDbEntity
  8
0
  6
Continuous
100
AcDbLine
 10
252.3523755713
 20
167.7787135208999
 30
0.0
 11
252.277378027
 21
167.8537133935
 31
0.0
  0
LINE
  5
436
330
2
100
AcDbEntity
  8
0
  6
Continuous
100
AcDbLine
 10
252.277378027
 20
167.2037135662999
 30
0.0
 11
252.277378027
 21
167.8537133935
 31
0.0
  0
LINE
  5
437
330
2
100
AcDbEntity
  8
0
  6
Continuous
100
AcDbLine
 10
252.277378027
 20
169.2037134285
 30
0.0
 11
252.277378027
 21
169.8537132555999
 31
0.0
  0
LINE
  5
438
330
2
100
AcDbEntity
  8
0
  6
Continuous
100
AcDbLine
 10
252.8523765845
 20
169.2787133011
 30
0.0
 11
252.8523765845
 21
169.7787133829999
 31
0.0
  0
LINE
  5
439
330
2
100
AcDbEntity
  8
0
  6
Continuous
100
AcDbLine
 10
252.8523765845
 20
169.7787133829999
 30
0.0
 11
252.3523755713
 21
169.7787133829999
 31
0.0
  0
LINE
  5
43A
330
2
100
AcDbEntity
  8
0
  6
Continuous
100
AcDbLine
 10
252.3523755713
 20
169.7787133829999
 30
0.0
 11
252.3523755713
 21
169.2787133011
 31
0.0
  0
LINE
  5
43B
330
2
100
AcDbEntity
  8
0
  6
Continuous
100
AcDbLine
 10
252.8523765845
 20
169.2787133011
 30
0.0
 11
252.3523755713
 21
169.2787133011
 31
0.0
  0
LINE
  5
43C
330
2
100
AcDbEntity
  8
0
  6
Continuous
100
AcDbLine
 10
252.8523765845
 20
167.2787134388999
 30
0.0
 11
252.8523765845
 21
167.7787135208999
 31
0.0
  0
LINE
  5
43D
330
2
100
AcDbEntity
  8
0
  6
Continuous
100
AcDbLine
 10
252.8523765845
 20
167.7787135208999
 30
0.0
 11
252.3523755713
 21
167.7787135208999
 31
0.0
  0
LINE
  5
43E
330
2
100
AcDbEntity
  8
0
  6
Continuous
100
AcDbLine
 10
252.3523755713
 20
167.7787135208999
 30
0.0
 11
252.3523755713
 21
167.2787134388999
 31
0.0
  0
LINE
  5
43F
330
2
100
AcDbEntity
  8
0
  6
Continuous
100
AcDbLine
 10
252.8523765845
 20
167.2787134388999
 30
0.0
 11
252.3523755713
 21
167.2787134388999
 31
0.0
  0
LINE
  5
440
330
2
100
AcDbEntity
  8
0
  6
Continuous
100
AcDbLine
 10
252.9273815793998
 20
161.8537133412999
 30
0.0
 11
252.9273815793998
 21
161.2037135141999
 31
0.0
  0
LINE
  5
441
330
2
100
AcDbEntity
  8
0
  6
Continuous
100
AcDbLine
 10
253.2623820347999
 20
160.2787136885
 30
0.0
 11
253.362376277
 21
160.3787135185999
 31
0.0
  0
LINE
  5
442
330
2
100
AcDbEntity
  8
0
  6
Continuous
100
AcDbLine
 10
254.7523789449
 20
159.9787132668
 30
0.0
 11
254.7523789449
 21
159.8787134366999
 31
0.0
  0
LINE
  5
443
330
2
100
AcDbEntity
  8
0
  6
Continuous
100
AcDbLine
 10
254.7523789449
 20
159.9787132668
 30
0.0
 11
253.2023825092
 21
159.9787132668
 31
0.0
  0
LINE
  5
444
330
2
100
AcDbEntity
  8
0
  6
Continuous
100
AcDbLine
 10
254.7523789449
 20
159.8787134366999
 30
0.0
 11
254.7523789449
 21
159.5287130998999
 31
0.0
  0
LINE
  5
445
330
2
100
AcDbEntity
  8
0
  6
Continuous
100
AcDbLine
 10
254.7523789449
 20
159.8787134366999
 30
0.0
 11
253.2023825092
 21
159.8787134366999
 31
0.0
  0
LINE
  5
446
330
2
100
AcDbEntity
  8
0
  6
Continuous
100
AcDbLine
 10
253.2023825092
 20
159.8787134366999
 30
0.0
 11
253.2023825092
 21
160.2187132315999
 31
0.0
  0
LINE
  5
447
330
2
100
AcDbEntity
  8
0
  6
Continuous
100
AcDbLine
 10
253.2023825092
 20
160.2187132315999
 30
0.0
 11
253.2623820347999
 21
160.2787136885
 31
0.0
  0
LINE
  5
448
330
2
100
AcDbEntity
  8
0
  6
Continuous
100
AcDbLine
 10
252.9273815793998
 20
163.8537136691
 30
0.0
 11
252.9273815793998
 21
163.2037129107
 31
0.0
  0
LINE
  5
449
330
2
100
AcDbEntity
  8
0
  6
Continuous
100
AcDbLine
 10
252.9273815793998
 20
165.8537135313
 30
0.0
 11
252.9273815793998
 21
165.2037132385
 31
0.0
  0
LINE
  5
44A
330
2
100
AcDbEntity
  8
0
  6
Continuous
100
AcDbLine
 10
252.9273815793998
 20
167.8537133935
 30
0.0
 11
252.9273815793998
 21
167.2037135662999
 31
0.0
  0
LINE
  5
44B
330
2
100
AcDbEntity
  8
0
  6
Continuous
100
AcDbLine
 10
252.9273815793998
 20
169.8537132555999
 30
0.0
 11
252.9273815793998
 21
169.2037134285
 31
0.0
  0
LINE
  5
44C
330
2
100
AcDbEntity
  8
0
  6
Continuous
100
AcDbLine
 10
250.0523813409999
 20
189.528714292
 30
0.0
 11
250.0523813409999
 21
184.8287129627999
 31
0.0
  0
LINE
  5
44D
330
2
100
AcDbEntity
  8
0
  6
Continuous
100
AcDbLine
 10
250.5523823543
 20
185.7287132966
 30
0.0
 11
250.5523823543
 21
189.528714292
 31
0.0
  0
LINE
  5
44E
330
2
100
AcDbEntity
  8
0
  6
Continuous
100
AcDbLine
 10
252.9273815793998
 20
183.8537132221
 30
0.0
 11
252.8523765845
 21
183.7787138152
 31
0.0
  0
LINE
  5
44F
330
2
100
AcDbEntity
  8
0
  6
Continuous
100
AcDbLine
 10
252.8523765845
 20
183.2787137331999
 30
0.0
 11
252.9273815793998
 21
183.2037133949999
 31
0.0
  0
LINE
  5
450
330
2
100
AcDbEntity
  8
0
  6
Continuous
100
AcDbLine
 10
252.9273815793998
 20
181.8537138255998
 30
0.0
 11
252.8523765845
 21
181.7787134872999
 31
0.0
  0
LINE
  5
451
330
2
100
AcDbEntity
  8
0
  6
Continuous
100
AcDbLine
 10
252.8523765845
 20
181.2787134054
 30
0.0
 11
252.9273815793998
 21
181.2037130670999
 31
0.0
  0
LINE
  5
452
330
2
100
AcDbEntity
  8
0
  6
Continuous
100
AcDbLine
 10
252.9273815793998
 20
179.8537134977999
 30
0.0
 11
252.8523765845
 21
179.7787131595
 31
0.0
  0
LINE
  5
453
330
2
100
AcDbEntity
  8
0
  6
Continuous
100
AcDbLine
 10
252.8523765845
 20
179.2787135431999
 30
0.0
 11
252.9273815793998
 21
179.203713205
 31
0.0
  0
LINE
  5
454
330
2
100
AcDbEntity
  8
0
  6
Continuous
100
AcDbLine
 10
252.9273815793998
 20
177.8537131699
 30
0.0
 11
252.8523765845
 21
177.7787132973998
 31
0.0
  0
LINE
  5
455
330
2
100
AcDbEntity
  8
0
  6
Continuous
100
AcDbLine
 10
252.8523765845
 20
177.2787132154
 30
0.0
 11
252.9273815793998
 21
177.2037133428
 31
0.0
  0
LINE
  5
456
330
2
100
AcDbEntity
  8
0
  6
Continuous
100
AcDbLine
 10
252.9273815793998
 20
175.8537133077999
 30
0.0
 11
252.8523765845
 21
175.7787134352
 31
0.0
  0
LINE
  5
457
330
2
100
AcDbEntity
  8
0
  6
Continuous
100
AcDbLine
 10
252.8523765845
 20
175.2787133532
 30
0.0
 11
252.9273815793998
 21
175.2037134806
 31
0.0
  0
LINE
  5
458
330
2
100
AcDbEntity
  8
0
  6
Continuous
100
AcDbLine
 10
252.9273815793998
 20
173.8537133291998
 30
0.0
 11
252.8523765845
 21
173.7787133402
 31
0.0
  0
LINE
  5
459
330
2
100
AcDbEntity
  8
0
  6
Continuous
100
AcDbLine
 10
252.8523765845
 20
173.2787133747
 30
0.0
 11
252.9273815793998
 21
173.2037133856
 31
0.0
  0
LINE
  5
45A
330
2
100
AcDbEntity
  8
0
  6
Continuous
100
AcDbLine
 10
252.9273815793998
 20
171.8537133506
 30
0.0
 11
252.8523765845
 21
171.7787133616
 31
0.0
  0
LINE
  5
45B
330
2
100
AcDbEntity
  8
0
  6
Continuous
100
AcDbLine
 10
252.8523765845
 20
171.2787133961
 30
0.0
 11
252.9273815793998
 21
171.2037134071
 31
0.0
  0
LINE
  5
45C
330
2
100
AcDbEntity
  8
0
  6
Continuous
100
AcDbLine
 10
252.277378027
 20
171.8537133506
 30
0.0
 11
252.9273815793998
 21
171.8537133506
 31
0.0
  0
LINE
  5
45D
330
2
100
AcDbEntity
  8
0
  6
Continuous
100
AcDbLine
 10
252.9273815793998
 20
171.2037134071
 30
0.0
 11
252.277378027
 21
171.2037134071
 31
0.0
  0
LINE
  5
45E
330
2
100
AcDbEntity
  8
0
  6
Continuous
100
AcDbLine
 10
252.277378027
 20
173.8537133291998
 30
0.0
 11
252.9273815793998
 21
173.8537133291998
 31
0.0
  0
LINE
  5
45F
330
2
100
AcDbEntity
  8
0
  6
Continuous
100
AcDbLine
 10
252.9273815793998
 20
173.2037133856
 30
0.0
 11
252.277378027
 21
173.2037133856
 31
0.0
  0
LINE
  5
460
330
2
100
AcDbEntity
  8
0
  6
Continuous
100
AcDbLine
 10
252.277378027
 20
175.8537133077999
 30
0.0
 11
252.9273815793998
 21
175.8537133077999
 31
0.0
  0
LINE
  5
461
330
2
100
AcDbEntity
  8
0
  6
Continuous
100
AcDbLine
 10
252.9273815793998
 20
175.2037134806
 30
0.0
 11
252.277378027
 21
175.2037134806
 31
0.0
  0
LINE
  5
462
330
2
100
AcDbEntity
  8
0
  6
Continuous
100
AcDbLine
 10
252.277378027
 20
177.8537131699
 30
0.0
 11
252.9273815793998
 21
177.8537131699
 31
0.0
  0
LINE
  5
463
330
2
100
AcDbEntity
  8
0
  6
Continuous
100
AcDbLine
 10
252.9273815793998
 20
177.2037133428
 30
0.0
 11
252.277378027
 21
177.2037133428
 31
0.0
  0
LINE
  5
464
330
2
100
AcDbEntity
  8
0
  6
Continuous
100
AcDbLine
 10
252.277378027
 20
179.8537134977999
 30
0.0
 11
252.9273815793998
 21
179.8537134977999
 31
0.0
  0
LINE
  5
465
330
2
100
AcDbEntity
  8
0
  6
Continuous
100
AcDbLine
 10
252.9273815793998
 20
179.203713205
 30
0.0
 11
252.277378027
 21
179.203713205
 31
0.0
  0
LINE
  5
466
330
2
100
AcDbEntity
  8
0
  6
Continuous
100
AcDbLine
 10
252.277378027
 20
181.8537138255998
 30
0.0
 11
252.9273815793998
 21
181.8537138255998
 31
0.0
  0
LINE
  5
467
330
2
100
AcDbEntity
  8
0
  6
Continuous
100
AcDbLine
 10
252.9273815793998
 20
181.2037130670999
 30
0.0
 11
252.277378027
 21
181.2037130670999
 31
0.0
  0
LINE
  5
468
330
2
100
AcDbEntity
  8
0
  6
Continuous
100
AcDbLine
 10
252.277378027
 20
183.8537132221
 30
0.0
 11
252.9273815793998
 21
183.8537132221
 31
0.0
  0
LINE
  5
469
330
2
100
AcDbEntity
  8
0
  6
Continuous
100
AcDbLine
 10
252.9273815793998
 20
183.2037133949999
 30
0.0
 11
252.277378027
 21
183.2037133949999
 31
0.0
  0
LINE
  5
46A
330
2
100
AcDbEntity
  8
0
  6
Continuous
100
AcDbLine
 10
252.3223795338
 20
184.6787132175999
 30
0.0
 11
253.362376277
 21
184.6787132175999
 31
0.0
  0
LINE
  5
46B
330
2
100
AcDbEntity
  8
0
  6
Continuous
100
AcDbLine
 10
255.3523816509
 20
185.7287132966
 30
0.0
 11
250.5523823543
 21
185.7287132966
 31
0.0
  0
LINE
  5
46C
330
2
100
AcDbEntity
  8
0
  6
Continuous
100
AcDbLine
 10
252.4223812265
 20
184.7787130477999
 30
0.0
 11
253.2623820347999
 21
184.7787130477999
 31
0.0
  0
LINE
  5
46D
330
2
100
AcDbEntity
  8
0
  6
Continuous
100
AcDbLine
 10
254.7523789449
 20
185.5287136363999
 30
0.0
 11
250.5523823543
 21
185.5287136363999
 31
0.0
  0
LINE
  5
46E
330
2
100
AcDbEntity
  8
0
  6
Continuous
100
AcDbLine
 10
252.3523755713
 20
173.7787133402
 30
0.0
 11
252.277378027
 21
173.8537133291998
 31
0.0
  0
LINE
  5
46F
330
2
100
AcDbEntity
  8
0
  6
Continuous
100
AcDbLine
 10
252.3523755713
 20
173.2787133747
 30
0.0
 11
252.277378027
 21
173.2037133856
 31
0.0
  0
LINE
  5
470
330
2
100
AcDbEntity
  8
0
  6
Continuous
100
AcDbLine
 10
252.3523755713
 20
171.2787133961
 30
0.0
 11
252.277378027
 21
171.2037134071
 31
0.0
  0
LINE
  5
471
330
2
100
AcDbEntity
  8
0
  6
Continuous
100
AcDbLine
 10
252.3523755713
 20
171.7787133616
 30
0.0
 11
252.277378027
 21
171.8537133506
 31
0.0
  0
LINE
  5
472
330
2
100
AcDbEntity
  8
0
  6
Continuous
100
AcDbLine
 10
252.277378027
 20
171.2037134071
 30
0.0
 11
252.277378027
 21
171.8537133506
 31
0.0
  0
LINE
  5
473
330
2
100
AcDbEntity
  8
0
  6
Continuous
100
AcDbLine
 10
252.277378027
 20
173.2037133856
 30
0.0
 11
252.277378027
 21
173.8537133291998
 31
0.0
  0
LINE
  5
474
330
2
100
AcDbEntity
  8
0
  6
Continuous
100
AcDbLine
 10
252.8523765845
 20
173.2787133747
 30
0.0
 11
252.3523755713
 21
173.2787133747
 31
0.0
  0
LINE
  5
475
330
2
100
AcDbEntity
  8
0
  6
Continuous
100
AcDbLine
 10
252.8523765845
 20
173.2787133747
 30
0.0
 11
252.8523765845
 21
173.7787133402
 31
0.0
  0
LINE
  5
476
330
2
100
AcDbEntity
  8
0
  6
Continuous
100
AcDbLine
 10
252.8523765845
 20
173.7787133402
 30
0.0
 11
252.3523755713
 21
173.7787133402
 31
0.0
  0
LINE
  5
477
330
2
100
AcDbEntity
  8
0
  6
Continuous
100
AcDbLine
 10
252.3523755713
 20
173.7787133402
 30
0.0
 11
252.3523755713
 21
173.2787133747
 31
0.0
  0
LINE
  5
478
330
2
100
AcDbEntity
  8
0
  6
Continuous
100
AcDbLine
 10
252.8523765845
 20
171.2787133961
 30
0.0
 11
252.8523765845
 21
171.7787133616
 31
0.0
  0
LINE
  5
479
330
2
100
AcDbEntity
  8
0
  6
Continuous
100
AcDbLine
 10
252.8523765845
 20
171.2787133961
 30
0.0
 11
252.3523755713
 21
171.2787133961
 31
0.0
  0
LINE
  5
47A
330
2
100
AcDbEntity
  8
0
  6
Continuous
100
AcDbLine
 10
252.8523765845
 20
171.7787133616
 30
0.0
 11
252.3523755713
 21
171.7787133616
 31
0.0
  0
LINE
  5
47B
330
2
100
AcDbEntity
  8
0
  6
Continuous
100
AcDbLine
 10
252.3523755713
 20
171.7787133616
 30
0.0
 11
252.3523755713
 21
171.2787133961
 31
0.0
  0
LINE
  5
47C
330
2
100
AcDbEntity
  8
0
  6
Continuous
100
AcDbLine
 10
252.3523755713
 20
177.2787132154
 30
0.0
 11
252.277378027
 21
177.2037133428
 31
0.0
  0
LINE
  5
47D
330
2
100
AcDbEntity
  8
0
  6
Continuous
100
AcDbLine
 10
252.3523755713
 20
177.7787132973998
 30
0.0
 11
252.277378027
 21
177.8537131699
 31
0.0
  0
LINE
  5
47E
330
2
100
AcDbEntity
  8
0
  6
Continuous
100
AcDbLine
 10
252.3523755713
 20
175.7787134352
 30
0.0
 11
252.277378027
 21
175.8537133077999
 31
0.0
  0
LINE
  5
47F
330
2
100
AcDbEntity
  8
0
  6
Continuous
100
AcDbLine
 10
252.3523755713
 20
175.2787133532
 30
0.0
 11
252.277378027
 21
175.2037134806
 31
0.0
  0
LINE
  5
480
330
2
100
AcDbEntity
  8
0
  6
Continuous
100
AcDbLine
 10
252.277378027
 20
175.2037134806
 30
0.0
 11
252.277378027
 21
175.8537133077999
 31
0.0
  0
LINE
  5
481
330
2
100
AcDbEntity
  8
0
  6
Continuous
100
AcDbLine
 10
252.277378027
 20
177.2037133428
 30
0.0
 11
252.277378027
 21
177.8537131699
 31
0.0
  0
LINE
  5
482
330
2
100
AcDbEntity
  8
0
  6
Continuous
100
AcDbLine
 10
252.8523765845
 20
177.2787132154
 30
0.0
 11
252.8523765845
 21
177.7787132973998
 31
0.0
  0
LINE
  5
483
330
2
100
AcDbEntity
  8
0
  6
Continuous
100
AcDbLine
 10
252.8523765845
 20
177.7787132973998
 30
0.0
 11
252.3523755713
 21
177.7787132973998
 31
0.0
  0
LINE
  5
484
330
2
100
AcDbEntity
  8
0
  6
Continuous
100
AcDbLine
 10
252.3523755713
 20
177.7787132973998
 30
0.0
 11
252.3523755713
 21
177.2787132154
 31
0.0
  0
LINE
  5
485
330
2
100
AcDbEntity
  8
0
  6
Continuous
100
AcDbLine
 10
252.8523765845
 20
177.2787132154
 30
0.0
 11
252.3523755713
 21
177.2787132154
 31
0.0
  0
LINE
  5
486
330
2
100
AcDbEntity
  8
0
  6
Continuous
100
AcDbLine
 10
252.8523765845
 20
175.2787133532
 30
0.0
 11
252.8523765845
 21
175.7787134352
 31
0.0
  0
LINE
  5
487
330
2
100
AcDbEntity
  8
0
  6
Continuous
100
AcDbLine
 10
252.8523765845
 20
175.7787134352
 30
0.0
 11
252.3523755713
 21
175.7787134352
 31
0.0
  0
LINE
  5
488
330
2
100
AcDbEntity
  8
0
  6
Continuous
100
AcDbLine
 10
252.3523755713
 20
175.7787134352
 30
0.0
 11
252.3523755713
 21
175.2787133532
 31
0.0
  0
LINE
  5
489
330
2
100
AcDbEntity
  8
0
  6
Continuous
100
AcDbLine
 10
252.8523765845
 20
175.2787133532
 30
0.0
 11
252.3523755713
 21
175.2787133532
 31
0.0
  0
LINE
  5
48A
330
2
100
AcDbEntity
  8
0
  6
Continuous
100
AcDbLine
 10
252.3523755713
 20
181.2787134054
 30
0.0
 11
252.277378027
 21
181.2037130670999
 31
0.0
  0
LINE
  5
48B
330
2
100
AcDbEntity
  8
0
  6
Continuous
100
AcDbLine
 10
252.3523755713
 20
181.7787134872999
 30
0.0
 11
252.277378027
 21
181.8537138255998
 31
0.0
  0
LINE
  5
48C
330
2
100
AcDbEntity
  8
0
  6
Continuous
100
AcDbLine
 10
252.3523755713
 20
179.7787131595
 30
0.0
 11
252.277378027
 21
179.8537134977999
 31
0.0
  0
LINE
  5
48D
330
2
100
AcDbEntity
  8
0
  6
Continuous
100
AcDbLine
 10
252.3523755713
 20
179.2787135431999
 30
0.0
 11
252.277378027
 21
179.203713205
 31
0.0
  0
LINE
  5
48E
330
2
100
AcDbEntity
  8
0
  6
Continuous
100
AcDbLine
 10
252.277378027
 20
179.203713205
 30
0.0
 11
252.277378027
 21
179.8537134977999
 31
0.0
  0
LINE
  5
48F
330
2
100
AcDbEntity
  8
0
  6
Continuous
100
AcDbLine
 10
252.277378027
 20
181.2037130670999
 30
0.0
 11
252.277378027
 21
181.8537138255998
 31
0.0
  0
LINE
  5
490
330
2
100
AcDbEntity
  8
0
  6
Continuous
100
AcDbLine
 10
252.8523765845
 20
181.7787134872999
 30
0.0
 11
252.3523755713
 21
181.7787134872999
 31
0.0
  0
LINE
  5
491
330
2
100
AcDbEntity
  8
0
  6
Continuous
100
AcDbLine
 10
252.3523755713
 20
181.7787134872999
 30
0.0
 11
252.3523755713
 21
181.2787134054
 31
0.0
  0
LINE
  5
492
330
2
100
AcDbEntity
  8
0
  6
Continuous
100
AcDbLine
 10
252.8523765845
 20
181.2787134054
 30
0.0
 11
252.8523765845
 21
181.7787134872999
 31
0.0
  0
LINE
  5
493
330
2
100
AcDbEntity
  8
0
  6
Continuous
100
AcDbLine
 10
252.8523765845
 20
181.2787134054
 30
0.0
 11
252.3523755713
 21
181.2787134054
 31
0.0
  0
LINE
  5
494
330
2
100
AcDbEntity
  8
0
  6
Continuous
100
AcDbLine
 10
252.8523765845
 20
179.2787135431999
 30
0.0
 11
252.8523765845
 21
179.7787131595
 31
0.0
  0
LINE
  5
495
330
2
100
AcDbEntity
  8
0
  6
Continuous
100
AcDbLine
 10
252.8523765845
 20
179.2787135431999
 30
0.0
 11
252.3523755713
 21
179.2787135431999
 31
0.0
  0
LINE
  5
496
330
2
100
AcDbEntity
  8
0
  6
Continuous
100
AcDbLine
 10
252.3523755713
 20
179.7787131595
 30
0.0
 11
252.3523755713
 21
179.2787135431999
 31
0.0
  0
LINE
  5
497
330
2
100
AcDbEntity
  8
0
  6
Continuous
100
AcDbLine
 10
252.8523765845
 20
179.7787131595
 30
0.0
 11
252.3523755713
 21
179.7787131595
 31
0.0
  0
LINE
  5
498
330
2
100
AcDbEntity
  8
0
  6
Continuous
100
AcDbLine
 10
250.5523823543
 20
185.7287132966
 30
0.0
 11
250.5523823543
 21
185.5287136363999
 31
0.0
  0
LINE
  5
499
330
2
100
AcDbEntity
  8
0
  6
Continuous
100
AcDbLine
 10
250.852379982
 20
184.8287129627999
 30
0.0
 11
250.0523813409999
 21
184.8287129627999
 31
0.0
  0
LINE
  5
49A
330
2
100
AcDbEntity
  8
0
  6
Continuous
100
AcDbLine
 10
252.3523755713
 20
183.2787137331999
 30
0.0
 11
252.277378027
 21
183.2037133949999
 31
0.0
  0
LINE
  5
49B
330
2
100
AcDbEntity
  8
0
  6
Continuous
100
AcDbLine
 10
252.3523755713
 20
183.7787138152
 30
0.0
 11
252.277378027
 21
183.8537132221
 31
0.0
  0
LINE
  5
49C
330
2
100
AcDbEntity
  8
0
  6
Continuous
100
AcDbLine
 10
252.277378027
 20
183.2037133949999
 30
0.0
 11
252.277378027
 21
183.8537132221
 31
0.0
  0
LINE
  5
49D
330
2
100
AcDbEntity
  8
0
  6
Continuous
100
AcDbLine
 10
250.5523823543
 20
184.91592294
 30
0.0
 11
250.5523823543
 21
184.8287129627999
 31
0.0
  0
LINE
  5
49E
330
2
100
AcDbEntity
  8
0
  6
Continuous
100
AcDbLine
 10
252.8523765845
 20
183.2787137331999
 30
0.0
 11
252.8523765845
 21
183.7787138152
 31
0.0
  0
LINE
  5
49F
330
2
100
AcDbEntity
  8
0
  6
Continuous
100
AcDbLine
 10
252.8523765845
 20
183.7787138152
 30
0.0
 11
252.3523755713
 21
183.7787138152
 31
0.0
  0
LINE
  5
4A0
330
2
100
AcDbEntity
  8
0
  6
Continuous
100
AcDbLine
 10
252.3523755713
 20
183.7787138152
 30
0.0
 11
252.3523755713
 21
183.2787137331999
 31
0.0
  0
LINE
  5
4A1
330
2
100
AcDbEntity
  8
0
  6
Continuous
100
AcDbLine
 10
252.8523765845
 20
183.2787137331999
 30
0.0
 11
252.3523755713
 21
183.2787137331999
 31
0.0
  0
LINE
  5
4A2
330
2
100
AcDbEntity
  8
0
  6
Continuous
100
AcDbLine
 10
250.0523813409999
 20
185.7287132966
 30
0.0
 11
250.5523823543
 21
185.7287132966
 31
0.0
  0
LINE
  5
4A3
330
2
100
AcDbEntity
  8
0
  6
Continuous
100
AcDbLine
 10
250.5523823543
 20
184.91592294
 30
0.0
 11
250.5523823543
 21
185.0787134695
 31
0.0
  0
LINE
  5
4A4
330
2
100
AcDbEntity
  8
0
  6
Continuous
100
AcDbLine
 10
251.6023777766
 20
185.0787134695
 30
0.0
 11
252.4823807520998
 21
185.0787134695
 31
0.0
  0
LINE
  5
4A5
330
2
100
AcDbEntity
  8
0
  6
Continuous
100
AcDbLine
 10
252.4223812265
 20
184.7787130477999
 30
0.0
 11
252.3223795338
 21
184.6787132175999
 31
0.0
  0
LINE
  5
4A6
330
2
100
AcDbEntity
  8
0
  6
Continuous
100
AcDbLine
 10
251.5023760839
 20
185.1787132995999
 30
0.0
 11
251.6023777766
 21
185.0787134695
 31
0.0
  0
LINE
  5
4A7
330
2
100
AcDbEntity
  8
0
  6
Continuous
100
AcDbLine
 10
250.5523823543
 20
185.0787134695
 30
0.0
 11
251.052375917
 21
185.0787134695
 31
0.0
  0
LINE
  5
4A8
330
2
100
AcDbEntity
  8
0
  6
Continuous
100
AcDbLine
 10
251.5023760839
 20
185.1787132995999
 30
0.0
 11
252.4823807520998
 21
185.1787132995999
 31
0.0
  0
LINE
  5
4A9
330
2
100
AcDbEntity
  8
0
  6
Continuous
100
AcDbLine
 10
252.4823807520998
 20
185.1787132995999
 30
0.0
 11
252.4823807520998
 21
184.8387135045999
 31
0.0
  0
LINE
  5
4AA
330
2
100
AcDbEntity
  8
0
  6
Continuous
100
AcDbLine
 10
252.4823807520998
 20
184.8387135045999
 30
0.0
 11
252.4223812265
 21
184.7787130477999
 31
0.0
  0
LINE
  5
4AB
330
2
100
AcDbEntity
  8
0
  6
Continuous
100
AcDbLine
 10
250.5523823543
 20
185.0787134695
 30
0.0
 11
250.5523823543
 21
185.5287136363999
 31
0.0
  0
LINE
  5
4AC
330
2
100
AcDbEntity
  8
0
  6
Continuous
100
AcDbLine
 10
252.9273815793998
 20
171.8537133506
 30
0.0
 11
252.9273815793998
 21
171.2037134071
 31
0.0
  0
LINE
  5
4AD
330
2
100
AcDbEntity
  8
0
  6
Continuous
100
AcDbLine
 10
252.9273815793998
 20
173.8537133291998
 30
0.0
 11
252.9273815793998
 21
173.2037133856
 31
0.0
  0
LINE
  5
4AE
330
2
100
AcDbEntity
  8
0
  6
Continuous
100
AcDbLine
 10
252.9273815793998
 20
175.8537133077999
 30
0.0
 11
252.9273815793998
 21
175.2037134806
 31
0.0
  0
LINE
  5
4AF
330
2
100
AcDbEntity
  8
0
  6
Continuous
100
AcDbLine
 10
252.9273815793998
 20
177.8537131699
 30
0.0
 11
252.9273815793998
 21
177.2037133428
 31
0.0
  0
LINE
  5
4B0
330
2
100
AcDbEntity
  8
0
  6
Continuous
100
AcDbLine
 10
252.9273815793998
 20
179.8537134977999
 30
0.0
 11
252.9273815793998
 21
179.203713205
 31
0.0
  0
LINE
  5
4B1
330
2
100
AcDbEntity
  8
0
  6
Continuous
100
AcDbLine
 10
252.9273815793998
 20
181.8537138255998
 30
0.0
 11
252.9273815793998
 21
181.2037130670999
 31
0.0
  0
LINE
  5
4B2
330
2
100
AcDbEntity
  8
0
  6
Continuous
100
AcDbLine
 10
252.9273815793998
 20
183.8537132221
 30
0.0
 11
252.9273815793998
 21
183.2037133949999
 31
0.0
  0
LINE
  5
4B3
330
2
100
AcDbEntity
  8
0
  6
Continuous
100
AcDbLine
 10
253.362376277
 20
184.6787132175999
 30
0.0
 11
253.2623820347999
 21
184.7787130477999
 31
0.0
  0
LINE
  5
4B4
330
2
100
AcDbEntity
  8
0
  6
Continuous
100
AcDbLine
 10
254.7523789449
 20
185.0787134695
 30
0.0
 11
254.7523789449
 21
185.1787132995999
 31
0.0
  0
LINE
  5
4B5
330
2
100
AcDbEntity
  8
0
  6
Continuous
100
AcDbLine
 10
253.2023825092
 20
185.0787134695
 30
0.0
 11
254.7523789449
 21
185.0787134695
 31
0.0
  0
LINE
  5
4B6
330
2
100
AcDbEntity
  8
0
  6
Continuous
100
AcDbLine
 10
254.7523789449
 20
185.5287136363999
 30
0.0
 11
254.7523789449
 21
185.1787132995999
 31
0.0
  0
LINE
  5
4B7
330
2
100
AcDbEntity
  8
0
  6
Continuous
100
AcDbLine
 10
253.2623820347999
 20
184.7787130477999
 30
0.0
 11
253.2023825092
 21
184.8387135045999
 31
0.0
  0
LINE
  5
4B8
330
2
100
AcDbEntity
  8
0
  6
Continuous
100
AcDbLine
 10
253.2023825092
 20
184.8387135045999
 30
0.0
 11
253.2023825092
 21
185.1787132995999
 31
0.0
  0
LINE
  5
4B9
330
2
100
AcDbEntity
  8
0
  6
Continuous
100
AcDbLine
 10
253.2023825092
 20
185.1787132995999
 30
0.0
 11
254.7523789449
 21
185.1787132995999
 31
0.0
  0
LINE
  5
4BA
330
2
100
AcDbEntity
  8
0
  6
Continuous
100
AcDbLine
 10
256.8523772402
 20
193.5287130849999
 30
0.0
 11
250.5523823543
 21
193.5287130849999
 31
0.0
  0
LINE
  5
4BB
330
2
100
AcDbEntity
  8
0
  6
Continuous
100
AcDbLine
 10
256.8523772402
 20
189.528714292
 30
0.0
 11
250.5523823543
 21
189.528714292
 31
0.0
  0
LINE
  5
4BC
330
2
100
AcDbEntity
  8
0
  6
Continuous
100
AcDbLine
 10
250.0523813409999
 20
193.5287130849999
 30
0.0
 11
250.0523813409999
 21
189.528714292
 31
0.0
  0
LINE
  5
4BD
330
2
100
AcDbEntity
  8
0
  6
Continuous
100
AcDbLine
 10
250.5523823543
 20
189.528714292
 30
0.0
 11
250.5523823543
 21
193.5287130849999
 31
0.0
  0
LINE
  5
4BE
330
2
100
AcDbEntity
  8
0
  6
Continuous
100
AcDbLine
 10
250.0523813409999
 20
189.3216067778998
 30
0.0
 11
250.5523823543
 21
189.3216067778998
 31
0.0
  0
LINE
  5
4BF
330
2
100
AcDbEntity
  8
0
  6
Continuous
100
AcDbLine
 10
250.0523813409999
 20
193.0287139343999
 30
0.0
 11
250.5523823543
 21
193.0287139343999
 31
0.0
  0
LINE
  5
4C0
330
2
100
AcDbEntity
  8
0
  6
Continuous
100
AcDbLine
 10
256.8523772402
 20
189.528714292
 30
0.0
 11
256.8523772402
 21
193.5287130849999
 31
0.0
  0
ENDSEC
  0
SECTION
  2
OBJECTS
  0
DICTIONARY
  5
7
330
0
100
AcDbDictionary
281
     1
  3
ACAD_GROUP
350
20
  3
ACAD_LAYOUT
350
B
  3
ACAD_MLINESTYLE
350
21
  3
ACAD_PLOTSETTINGS
350
22
  3
ACAD_PLOTSTYLENAME
350
6
  3
AcDbVariableDictionary
350
4C3
  0
DICTIONARY
  5
20
102
{ACAD_REACTORS
330
7
102
}
330
7
100
AcDbDictionary
281
     1
  0
DICTIONARY
  5
B
102
{ACAD_REACTORS
330
7
102
}
330
7
100
AcDbDictionary
281
     1
  3
Layout1
350
F
  3
Model
350
A
  0
DICTIONARY
  5
21
102
{ACAD_REACTORS
330
7
102
}
330
7
100
AcDbDictionary
281
     1
  3
Standard
350
24
  0
DICTIONARY
  5
22
102
{ACAD_REACTORS
330
7
102
}
330
7
100
AcDbDictionary
281
     1
  0
ACDBDICTIONARYWDFLT
  5
6
102
{ACAD_REACTORS
330
7
102
}
330
7
100
AcDbDictionary
281
     1
  3
Normal
350
5
100
AcDbDictionaryWithDefault
340
5
  0
DICTIONARY
  5
4C3
102
{ACAD_REACTORS
330
7
102
}
330
7
100
AcDbDictionary
281
     1
  3
DIMASSOC
350
4C5
  3
HIDETEXT
350
4C4
  0
LAYOUT
  5
F
102
{ACAD_REACTORS
330
B
102
}
330
B
100
AcDbPlotSettings
  1

  2
none_device
  4

  6

 40
0.0
 41
0.0
 42
0.0
 43
0.0
 44
0.0
 45
0.0
 46
0.0
 47
0.0
 48
0.0
 49
0.0
140
0.0
141
0.0
142
1.0
143
1.0
 70
   688
 72
     0
 73
     0
 74
     5
  7

 75
    16
147
1.0
148
0.0
149
0.0
100
AcDbLayout
  1
Layout1
 70
     1
 71
     1
 10
0.0
 20
0.0
 11
420.0
 21
297.0
 12
0.0
 22
0.0
 32
0.0
 14
1.000000000000000E+20
 24
1.000000000000000E+20
 34
1.000000000000000E+20
 15
-1.000000000000000E+20
 25
-1.000000000000000E+20
 35
-1.000000000000000E+20
146
0.0
 13
0.0
 23
0.0
 33
0.0
 16
1.0
 26
0.0
 36
0.0
 17
0.0
 27
1.0
 37
0.0
 76
     0
330
C
  0
LAYOUT
  5
A
102
{ACAD_REACTORS
330
B
102
}
330
B
100
AcDbPlotSettings
  1

  2
none_device
  4

  6

 40
0.0
 41
0.0
 42
0.0
 43
0.0
 44
0.0
 45
0.0
 46
0.0
 47
0.0
 48
0.0
 49
0.0
140
0.0
141
0.0
142
1.0
143
1.0
 70
  1712
 72
     0
 73
     0
 74
     0
  7

 75
     0
147
1.0
148
0.0
149
0.0
100
AcDbLayout
  1
Model
 70
     1
 71
     0
 10
0.0
 20
0.0
 11
297.0
 21
210.0
 12
0.0
 22
0.0
 32
0.0
 14
0.0
 24
0.0
 34
0.0
 15
297.0
 25
210.0
 35
0.0
146
0.0
 13
0.0
 23
0.0
 33
0.0
 16
1.0
 26
0.0
 36
0.0
 17
0.0
 27
1.0
 37
0.0
 76
     0
330
2
  0
MLINESTYLE
  5
24
102
{ACAD_REACTORS
330
21
102
}
330
21
100
AcDbMlineStyle
  2
STANDARD
 70
     0
  3

 62
   256
 51
90.0
 52
90.0
 71
     2
 49
0.5
 62
   256
  6
BYLAYER
 49
-0.5
 62
   256
  6
BYLAYER
  0
ACDBPLACEHOLDER
  5
5
102
{ACAD_REACTORS
330
6
102
}
330
6
  0
DICTIONARYVAR
  5
4C5
102
{ACAD_REACTORS
330
4C3
102
}
330
4C3
100
DictionaryVariables
280
     0
  1
2
  0
DICTIONARYVAR
  5
4C4
102
{ACAD_REACTORS
330
4C3
102
}
330
4C3
100
DictionaryVariables
280
     0
  1
1
  0
ENDSEC
  0
EOF
